Files
2023-06-15 19:15:39 -05:00

311 lines
9.7 KiB
Plaintext

//TJADB Project
TITLE:CLOSER
TITLEJA:CLOSER
SUBTITLE:--Joe Inoue/NARUTO-Shippuuden
SUBTITLEJA:「火影忍者 疾風傳」主題曲
BPM:166
WAVE:CLOSER.ogg
OFFSET:-3.392
DEMOSTART:43.128
BGMOVIE:CLOSER.mp4
COURSE:Oni
LEVEL:7
SCOREINIT:710
SCOREDIFF:190
#START
200000000000000000000000000000200000000000200000,
000000000000000000000000000000000000000000000000,
200000000000000000000000000000000000000000200000,
000000200000000000000000000000000000000000000000,
200000000000000000000000000000000000000000200000,
000000200000000000000000000000000000000000000000,
200000000000000000000000000000000000000000300000,
000000300000300000000000100000100000200200200000,
100000000000200000000000100000100000200000000000,
100000000000200000000000100000100000200000000000,
100000000000200000000000100000100000200000100000,
000000100000200000100000100000100200200000000000,
100100100000000000200000200000200000200000200000,
100100100000000000200000200000200000200000200000,
100100100000000000200000200000200000200000200000,
100100100000000000200000100100100000000000200000,
100100100000000000200000200000200000200000200000,
100100100000000000200000200000200000200000200000,
100100100000000000200000200000200000200000200000,
100100100000000000200000100100100000000000200000,
100000100000000000100000200000000000000000000000,
100000100000000000100000200000000000000000000000,
100000100000000000100000200000000000000000000000,
100000100000000000200000100000100000000000200000,
100000100000000000100000200000000000000000000000,
100000100000000000100000200000000000000000000000,
100000100000200000200000100100200000100100200000,
000000300000300000000000000000000000000000000000,
#GOGOSTART
100000000000200000100100100000100000200000000000,
100000100000200000100100100000100000200000000000,
100000000000200000100100100000100000200000100000,
000000100000200000100100100000100000200000000000,
100000000000200000100100100000100000200000000000,
100000100000200000100100100000100000200000000000,
100000000000200000100100100000100000200000100000,
000000100000200000100000100000200000200000100000,
100000000000200000100100100000100000200000000000,
100000100000200000100100100000100000200000000000,
100000000000200000100100100000100000200000100000,
000000100000200000100100100000100000200000000000,
100000000000200000100100100000100000200000000000,
200200100100200200100100100100100000100000100000,
000000100000200000100100100000100000200000100000,
000000100000200000100100100000100000200000100000,
000000100000200000100100100000100000200000100000,
000000100000200000100100100000100100200000100000,
000000100000200000100100100000100000200000100000,
000000100000200000100100100000100000200000100000,
000000100000200000100100100000100000200000100000,
000000100000200000100100200200100000200000100000,
000000100000200000100100100000100000200000100000,
000000100000200000100100100000100000200000100000,
000000100000200000100100100000100000200000100000,
000000100000200000100100100000100100200000100000,
000000100000200000100100100000100000200000100000,
200200100100100000200200100100100000300000000000,
300000000000000000000000000000000000000000000000,
#GOGOEND
#END
COURSE:Hard
LEVEL:5
SCOREINIT:810
SCOREDIFF:220
#START
2,
2,
22,
2,
2,
2,
20002003,
03300000,
10201120,
10201102,
10201121,
0010200010112000,
11002200,
11002200,
11002200,
11021102,
11002200,
11002200,
11002200,
11021102,
11102000,
11102000,
11102000,
11101110,
32,
11102000,
10121211,
03300000,
#GOGOSTART
10201120,
10201120,
10201120,
11201120,
10201120,
10201120,
10201120,
11201121,
00201120,
10201121,
00201120,
10201121,
00201121,
01000001,
01201121,
01201021,
01201121,
01201021,
01201121,
01201021,
01210121,
01201121,
0010200011102010,
01201121,
0010200011102010,
01201121,
01210121,
01000030,
3,
#GOGOEND
#END
COURSE:Normal
LEVEL:3
SCOREINIT:830
SCOREDIFF:250
#START
200000000000000000000000000000000000000000000000,
200000000000000000000000000000000000000000000000,
200000000000000000000000000000000000000000000000,
200000000000000000000000000000000000000000000000,
200000000000000000000000000000000000000000000000,
200000000000000000000000000000000000000000000000,
200000000000000000000000000000000000000000300000,
000000300000300000000000000000000000000000000000,
100000000000200000000000100000000000000000000000,
100000000000200000000000100000000000000000000000,
100000000000200000000000100000000000000000000000,
100000000000200000000000300000000000000000000000,
100000100000000000000000000000000000000000000000,
100000100000000000000000000000000000000000000000,
100000100000000000000000000000000000000000000000,
100000100000000000000000100000100000000000000000,
100000100000000000000000000000000000000000000000,
100000100000000000000000000000000000000000000000,
100000100000000000000000000000000000000000000000,
100000100000000000000000100000100000000000000000,
100000000000100000000000200000000000000000000000,
100000000000100000000000200000000000000000000000,
100000000000100000000000200000000000000000000000,
100000000000100000000000100000000000100000000000,
300000000000000000000000200000000000000000000000,
100000000000100000000000200000000000000000000000,
100000000000100000000000100000000000000000300000,
000000000000000000000000000000000000000000000000,
#GOGOSTART
100000000000200000000000100000100000100000000000,
100000000000200000000000100000000000000000000000,
100000000000200000000000100000100000100000000000,
100000000000000000000000000000000000000000000000,
100000000000200000000000100000100000100000000000,
100000000000200000000000100000000000000000000000,
100000000000200000000000100000100000100000000000,
300000000000000000000000100000100000100000000000,
100000000000200000000000100000000000200000000000,
100000000000200000000000000000000000000000000000,
100000000000200000000000100000000000200000000000,
100000000000200000000000000000000000000000000000,
100000000000200000000000100000000000200000000000,
300000000000000000000000000000000000100000100000,
000000000000200000000000100000000000100000200000,
000000000000000000000000000000000000100000100000,
000000000000200000000000100000000000100000200000,
000000000000000000000000000000000000100000100000,
000000000000200000000000100000000000100000200000,
000000000000000000000000000000000000100000100000,
000000000000200000000000100000000000100000100000,
000000000000300000000000000000000000100000100000,
000000000000200000000000100000000000200000200000,
000000000000100000000000000000000000100000100000,
000000000000200000000000100000000000200000200000,
000000000000100000000000000000000000100000100000,
000000000000200000000000100000000000200000000000,
100000100000100000000000000000000000300000000000,
300000000000000000000000000000000000000000000000,
#GOGOEND
#END
COURSE:Easy
LEVEL:3
SCOREINIT:890
SCOREDIFF:360
#START
200000000000000000000000000000000000000000000000,
200000000000000000000000000000000000000000000000,
200000000000000000000000000000000000000000000000,
200000000000000000000000000000000000000000000000,
200000000000000000000000000000000000000000000000,
200000000000000000000000000000000000000000000000,
200000000000000000000000000000000000000000000000,
300000000000000000000000000000000000000000000000,
100000000000000000000000100000000000000000000000,
100000000000000000000000100000000000000000000000,
100000000000000000000000100000000000000000000000,
100000000000000000000000100000000000100000000000,
300000000000000000000000000000000000000000000000,
100000000000000000000000000000000000000000000000,
100000000000000000000000000000000000000000000000,
100000000000000000000000100000000000000000000000,
100000000000000000000000000000000000000000000000,
100000000000000000000000000000000000000000000000,
100000000000000000000000000000000000000000000000,
100000000000000000000000100000000000000000000000,
100000000000000000000000200000000000000000000000,
100000000000000000000000200000000000000000000000,
100000000000000000000000200000000000000000000000,
100000000000000000000000100000000000000000000000,
100000000000000000000000200000000000000000000000,
100000000000000000000000200000000000000000000000,
500000000000000000000000000000000000000000000008,
000000000000000000000000000000000000000000000000,
#GOGOSTART
100000000000100000000000100000000000000000000000,
300000000000000000000000000000000000000000000000,
100000000000100000000000100000000000000000000000,
300000000000000000000000000000000000000000000000,
100000000000100000000000100000000000000000000000,
300000000000000000000000000000000000000000000000,
100000000000100000000000100000000000000000000000,
300000000000300000000000000000000000000000000000,
100000000000000000000000100000000000100000000000,
100000000000000000000000000000000000000000000000,
100000000000000000000000100000000000100000000000,
100000000000000000000000000000000000000000000000,
100000000000000000000000100000000000100000000000,
500000000000000000000008000000000000000000000000,
100000000000100000000000100000000000000000000000,
300000000000000000000000000000000000000000000000,
100000000000100000000000100000000000000000000000,
300000000000000000000000000000000000000000000000,
100000000000100000000000100000000000000000000000,
300000000000000000000000000000000000000000000000,
100000000000100000000000100000000000000000000000,
300000000000300000000000000000000000000000000000,
100000000000100000000000100000000000100000000000,
100000000000000000000000000000000000000000000000,
100000000000100000000000100000000000100000000000,
100000000000000000000000000000000000000000000000,
100000000000000000000000100000000000100000000000,
100000000000000000000000000000000000000000000000,
300000000000000000000000000000000000000000000000,
#GOGOEND
#END