Files
2023-06-15 19:15:39 -05:00

376 lines
15 KiB
Plaintext

//TJADB Project
TITLE:Cerulean
TITLEJA:セルリアン
SUBTITLE:--BACK-ON/Gundam Build Fighters Try
SUBTITLEJA:「ガンダムビルドファイターズトライ」より
BPM:196
WAVE:Cerulean.ogg
OFFSET:-1.607
DEMOSTART:59.725
COURSE:Oni
LEVEL:7
BALLOON:8
SCOREINIT:660
SCOREDIFF:180
#START
200000000000200000000000200000000000200000200000,
000000200000200000000000200000000000200000000000,
200000000000200000000000200000000000200000700000,
000000000000000000000000000000000000800000000000,
#GOGOSTART
100000000000200000000000100000000000200000100000,
000000100000200000000000200000000000200000000000,
100000000000200000000000100000000000200000100000,
000000100000200000000000200000100000200000200200,
100000000000200000100000000000100000000000200000,
000000200000100000000000100000200000100000000000,
100000000000200000100000000000200000100000000000,
100000100000200000000000200200200200100000000000,
100000000000200000000000100000000000200000100000,
000000100000200000000000200000100000200000200200,
100000000000200000000000100000000000200000100000,
000000100000200000000000200000100000200000200200,
100000000000200000100000000000100000000000200000,
000000200000100000000000100000100000200000200200,
100000000000200000100000000000200000100000000000,
100000100000200000100000200200200200200000000000,
300000000000200000000000100000000000200000100000,
000000100000200000200200100000000000200000000000,
100000000000200000000000100000000000200000100000,
000000100000200000100000200000100000200000100000,
#GOGOEND
000000100000200000000000000000000000200000000000,
000000000000200000000000000000000000200000100000,
000000100000200000000000000000000000200000100000,
100000200000000000200000000000200000000000300000,
000000100000200000000000100000000000200000100000,
100000000000200000000000100000000000200000100000,
000000100000200000000000000000000000200000000000,
100000100000200000100000200200200200200000300000,
000000100000200000100000200000200200200000100000,
000000100000200000100000200200200000200000100000,
000000100000200000100000200000200200200000100000,
000000100000200000100000200200200000200000100000,
000000100000200000100000200000200200200000100000,
100000100000200000100000200000200200200000100000,
000000100000200000100000100100100000200200200000,
100000200200100000200000100100100000200000300000,
000000000000000000200000200000000000000000300000,
000000000000000000000000000000000000000000300000,
000000000000200000000000100000100000200000100000,
100000100000200000100000200000100000200000000000,
000000000000300000000000000000200000200000200000,
100000100000100000100000200000000000200000000000,
000000100000100000200000000000200000200000300000,
000000300000000000000000400000000000400000000000,
#GOGOSTART
100000000000200000000200100000100000200000100000,
000000100000200000000200200000100000200000200200,
100000000000200000000200100000100000200000100000,
000000100000200000200200200000100000200000200200,
100000000000200000100000200200100000200000100000,
000000100000200000000200100000100000200000000000,
100000000000200000100000000000200000100000000000,
100000100000200000100000200200200200100000000000,
100000000000200000000200100000100000200000100000,
000000100000200000000200200000100000200000200200,
100000000000200000000200100000100000200000100000,
000000100000200000000000200000100000200000200200,
100000000000200000100000200200100000200000100000,
000000100000200000000200100000100000200000200200,
100000000000200000100000000000200000100000000000,
100000100000200000100000200200200200200000000000,
300000000000200000000000100000100000200000100000,
000000100000200000200200100000100000200000000000,
100000000000200000000000100000100000200000100000,
000000100000200000100000200000200200100000000000,
300000000000000000300000000000000000600000000000,
000000000008000000000000200000100100200000000000,
300000000000000000300000000000000000300000000000,
000000100000200000100000200200100000200200200200,
#GOGOEND
#END
COURSE:Hard
LEVEL:5
BALLOON:4
SCOREINIT:700
SCOREDIFF:208
#START
200000000000200000000000200000000000000000200000,
000000000000200000000000200000000000200000000000,
200000000000200000000000200000000000000000500000,
000000000000000000800000000000000000000000000000,
#GOGOSTART
100000000000200000200000000000100000100000000000,
000000000000200000000000200000000000200000000000,
100000000000200000200000000000100000100000000000,
000000000000200000000000200000000000200000000000,
100000000000200000200000000000100000000000100000,
000000000000200000000000100000000000100000000000,
100000000000200000100000000000200000100000000000,
000000000000000000000000200000000000200000000000,
100000000000200000200000000000100000100000000000,
000000000000200000000000200000000000200000000000,
100000000000200000200000000000100000100000000000,
000000000000200000000000200000000000200000000000,
100000000000200000200000000000100000000000100000,
000000000000200000000000200000000000200000000000,
100000000000200000100000000000200000100000000000,
100000100000200000000000200000200000200000000000,
300000000000200000000000100000000000200000100000,
000000100000200000000000100000000000100000000000,
100000000000200000000000100000000000200000100000,
000000100000200000100000100000000000100000100000,
#GOGOEND
000000000000200000000000000000000000200000000000,
000000000000200000000000000000000000200000100000,
000000100000200000000000000000000000200000000000,
100000100000200000100000000000100000200000300000,
000000100000200000000000000000000000200000000000,
000000000000200000000000000000000000200000100000,
000000100000200000000000000000000000200000000000,
100000100000200000100000200000100000200000300000,
000000100000200000000000100000100000200000100000,
000000100000200000000000100000100000200000100000,
000000100000200000000000100000100000200000100000,
000000100000200000100000100000100000200000100000,
000000100000200000000000100000100000200000100000,
000000100000200000000000100000100000200000100000,
000000100000200000000000100000000000200000200000,
100000100000000000200000000000200000000000300000,
000000000000000000200000200000000000000000300000,
000000000000000000000000000000000000000000300000,
000000000000000000000000100000000000100000000000,
100000100000000000100000000000100000200000000000,
000000000000300000000000000000200000200000000000,
100000100000100000000000200000000000200000000000,
000000100000100000100000000000100000000000300000,
000000300000000000000000400000000000400000000000,
#GOGOSTART
100000000000200000200000000000100000100000000000,
000000000000200000000000200000000000200000000000,
100000000000200000200000000000100000100000000000,
000000000000200000000000200000000000200000000000,
100000000000200000200000000000100000000000100000,
000000000000200000000000200000000000200000000000,
100000000000200000100000000000200000100000000000,
100000200000100000000000200000000000200000000000,
100000000000200000200000000000100000100000000000,
000000000000200000000000200000000000200000000000,
100000000000200000200000000000100000100000000000,
000000000000200000200000200000000000200000000000,
100000000000200000200000000000100000000000100000,
000000000000200000000000200000000000200000000000,
100000000000200000100000000000200000100000000000,
100000100000200000100000700000000000000800000000,
300000000000200000000000100000000000200000100000,
000000100000200000000000100000000000100000000000,
100000000000200000000000100000000000200000100000,
000000100000200000000000200000000000200000000000,
300000000000200000000000100000000000200000100000,
000000100000200000000000300000000000300000000000,
300000000000000000300000000000000000600000000000,
000000000000000000000000800000000000000000300000,
#GOGOEND
#END
COURSE:Normal
LEVEL:5
SCOREINIT:620
SCOREDIFF:205
#START
200000000000000000200000000000000000200000000000,
000000000000000000000000200000000000200000000000,
200000000000000000200000000000000000500000000000,
000000000000000000800000000000000000000000000000,
#GOGOSTART
300000000000000000300000000000000000300000000000,
000000000000200000000000200000000000200000000000,
300000000000000000300000000000000000300000000000,
000000000000200000000000200000000000200000000000,
100000000000100000100000000000200000000000200000,
000000000000200000000000200000000000200000000000,
300000000000000000300000000000000000300000000000,
000000000000000000000000100000000000100000000000,
300000000000000000300000000000000000300000000000,
000000000000200000000000200000000000200000000000,
300000000000000000300000000000000000300000000000,
000000000000200000000000200000000000200000000000,
100000000000100000100000000000200000000000200000,
000000000000200000000000200000000000200000000000,
300000000000000000300000000000000000300000000000,
000000000000400000000000400000000000400000000000,
300000000000000000000000100000000000100000100000,
000000000000100000000000100000000000000000000000,
100000000000000000000000100000000000100000100000,
000000100000100000000000100000000000100000100000,
#GOGOEND
000000000000200000000000000000000000200000000000,
000000000000200000000000000000000000200000100000,
000000100000200000000000000000000000200000000000,
000000000000200000000000000000000000200000100000,
000000100000200000000000000000000000200000000000,
000000000000200000000000000000000000200000100000,
000000100000200000000000000000000000200000000000,
100000000000100000000000200000200000000000300000,
000000000000200000000000100000100000000000300000,
000000000000200000000000100000100000000000300000,
000000000000200000000000100000100000000000300000,
000000000000200000000000100000100000000000300000,
000000000000200000000000100000100000000000300000,
000000000000200000000000100000100000000000300000,
000000000000200000000000100000000000200000000000,
100000100000000000100000000000100000000000300000,
000000000000000000000000200000000000000000300000,
000000000000000000000000200000000000000000300000,
000000000000000000000000100000000000100000000000,
300000000000000000300000000000000000300000000000,
000000000000300000000000000000200000200000000000,
100000000000100000000000100000000000100000000000,
000000200000000000200000000000200000000000400000,
000000400000000000000000000000000000000000000000,
#GOGOSTART
300000000000000000300000000000000000300000000000,
000000000000200000000000200000000000200000000000,
300000000000000000300000000000000000300000000000,
000000000000200000000000200000000000200000000000,
100000000000100000100000000000200000000000200000,
000000000000200000000000200000000000200000000000,
300000000000000000300000000000000000300000000000,
000000000000000000000000100000000000100000000000,
300000000000000000300000000000000000300000000000,
000000000000200000000000200000000000200000000000,
300000000000000000300000000000000000300000000000,
000000000000200000000000200000000000200000000000,
100000000000100000100000000000200000000000200000,
000000000000200000000000200000000000200000000000,
300000000000000000300000000000000000300000000000,
000000000000400000000000400000000000400000000000,
300000000000000000000000100000000000100000100000,
000000000000100000000000100000000000000000000000,
100000000000000000000000100000000000100000100000,
000000000000100000000000100000000000000000000000,
300000000000000000000000100000000000100000100000,
000000000000000000000000300000000000300000000000,
300000000000000000300000000000000000600000000000,
000000000000000000000000000000000000000008000000,
#GOGOEND
#END
COURSE:Easy
LEVEL:4
SCOREINIT:520
SCOREDIFF:203
#START
200000000000000000000000000000000000000000000000,
000000000000000000000000200000000000200000000000,
200000000000000000000000000000000000500000000000,
000000000000000000800000000000000000000000000000,
#GOGOSTART
300000000000000000300000000000000000300000000000,
000000000000000000000000000000000000000000000000,
300000000000000000300000000000000000300000000000,
000000000000000000000000000000000000000000000000,
100000000000000000000000100000000000000000000000,
100000000000000000000000100000000000000000000000,
300000000000000000300000000000000000300000000000,
000000000000000000000000100000000000100000000000,
300000000000000000300000000000000000300000000000,
000000000000000000000000000000000000000000000000,
300000000000000000300000000000000000300000000000,
000000000000000000000000000000000000000000000000,
100000000000000000000000100000000000000000000000,
100000000000000000000000100000000000000000000000,
300000000000000000300000000000000000300000000000,
000000000000100000000000100000000000100000000000,
600000000000000000000000000000000000000000000000,
000000000000000000000000800000000000000000000000,
300000000000000000300000000000000000300000000000,
000000000000100000000000100000000000000000000000,
#GOGOEND
000000000000200000000000000000000000200000000000,
000000000000200000000000000000000000200000000000,
000000000000200000000000000000000000200000000000,
000000000000200000000000000000000000200000000000,
000000000000200000000000000000000000200000000000,
000000000000200000000000000000000000200000000000,
000000000000200000000000000000000000200000000000,
100000000000100000000000100000000000000000300000,
000000000000200000000000100000000000000000300000,
000000000000200000000000100000000000000000300000,
000000000000200000000000100000000000000000300000,
000000000000200000000000100000000000000000300000,
000000000000200000000000100000000000000000300000,
000000000000200000000000100000000000000000300000,
000000000000200000000000100000000000000000000000,
300000000000000000300000000000000000000000300000,
000000000000000000000000000000000000000000300000,
000000000000000000000000000000000000000000300000,
000000000000000000000000100000000000100000000000,
100000000000000000000000100000000000100000000000,
000000000000300000000000000000000000200000000000,
200000000000000000000000200000000000000000000000,
200000000000000000000000200000000000000000300000,
000000300000000000000000400000000000400000000000,
#GOGOSTART
300000000000000000300000000000000000300000000000,
000000000000000000000000100000000000100000000000,
300000000000000000300000000000000000300000000000,
000000000000000000000000100000000000100000000000,
100000000000000000000000100000000000000000000000,
100000000000000000000000100000000000000000000000,
300000000000000000300000000000000000300000000000,
000000000000000000000000100000000000100000000000,
300000000000000000300000000000000000300000000000,
000000000000000000000000100000000000100000000000,
300000000000000000300000000000000000300000000000,
000000000000000000000000100000000000100000000000,
100000000000000000000000100000000000000000000000,
100000000000000000000000100000000000000000000000,
300000000000000000300000000000000000300000000000,
000000000000100000000000100000000000100000000000,
600000000000000000000000000000000000000000000000,
000000000000000000000000800000000000000000000000,
100000000000000000100000000000000000100000000000,
000000000000000000000000000000000000000000000000,
300000000000000000300000000000000000300000000000,
000000000000000000000000100000000000100000000000,
300000000000000000300000000000000000600000000000,
000000000000000000000000000000000000000008000000,
#GOGOEND
#END