forked from ESE/ESE
291 lines
9.3 KiB
Plaintext
291 lines
9.3 KiB
Plaintext
//TJADB Project
|
||
TITLE:Challenger‼
|
||
TITLEJA:FIXME
|
||
SUBTITLE:--Rica Matsumoto/Pokémon the Series: Advanced
|
||
BPM:170
|
||
WAVE:Challenger!!.ogg
|
||
OFFSET:-7.977
|
||
DEMOSTART:59.506
|
||
|
||
COURSE:Oni
|
||
LEVEL:5
|
||
|
||
|
||
#START
|
||
|
||
|
||
12021012,
|
||
02101202,
|
||
10011122,
|
||
3330,
|
||
11122011,
|
||
12201212,
|
||
3344,
|
||
11122000,
|
||
1022,
|
||
12,
|
||
1022,
|
||
12,
|
||
10101110,
|
||
01021010,
|
||
01021011,
|
||
01211000,
|
||
01021011,
|
||
10121110,
|
||
01021011,
|
||
01211000,
|
||
11121120,
|
||
10121120,
|
||
11121120,
|
||
3330,
|
||
11121112,
|
||
11121120,
|
||
11121112,
|
||
11121000,
|
||
30221120,
|
||
10221120,
|
||
10221120,
|
||
10221120,
|
||
30221101,
|
||
1113,
|
||
300000000000000000000000500000000000000008000000,
|
||
30030030,
|
||
#MEASURE 2/4
|
||
3,
|
||
#MEASURE 4/4
|
||
12021012,
|
||
02101202,
|
||
10111220,
|
||
33303000,
|
||
12124012,
|
||
12401210,
|
||
21101010,
|
||
1110,
|
||
12124012,
|
||
12401212,
|
||
4000101120204000,
|
||
30333000,
|
||
12124012,
|
||
12401220,
|
||
0444,
|
||
4331,
|
||
1150,
|
||
000000000000000008000000000000000000000000000000,
|
||
|
||
|
||
#END
|
||
|
||
|
||
COURSE:Hard
|
||
LEVEL:4
|
||
SCOREINIT:800
|
||
SCOREDIFF:200
|
||
|
||
|
||
#START
|
||
|
||
|
||
100000200000000000100000100000000000100000200000,
|
||
000000100000100000000000100000200000000000100000,
|
||
100000000000100000100000100000100000100000000000,
|
||
300000000000300000000000300000000000000000000000,
|
||
100000100000100000100000100000000000100000100000,
|
||
100000100000100000000000100000000000100000000000,
|
||
300000000000300000000000400000000000400000000000,
|
||
100000100000100000100000100000000000000000000000,
|
||
100000000000000000000000200000000000200000000000,
|
||
100000000000000000000000200000000000000000000000,
|
||
100000000000000000000000200000000000200000000000,
|
||
100000000000000000000000200000000000000000000000,
|
||
100000000000100000000000100000100000100000000000,
|
||
000000100000000000200000100000000000100000000000,
|
||
000000100000000000200000100000000000100000100000,
|
||
000000100000200000100000100000000000000000000000,
|
||
000000100000000000200000100000000000100000100000,
|
||
100000000000100000200000100000100000100000000000,
|
||
000000100000000000200000100000000000100000100000,
|
||
000000100000200000100000100000000000000000000000,
|
||
100000100000100000200000100000100000200000000000,
|
||
100000000000100000200000100000100000200000000000,
|
||
100000100000100000200000100000100000200000000000,
|
||
300000000000300000000000300000000000000000000000,
|
||
100000100000100000200000100000100000100000200000,
|
||
100000100000100000200000100000100000200000000000,
|
||
100000100000100000200000100000100000100000200000,
|
||
100000100000100000200000100000000000000000000000,
|
||
300000000000200000200000100000100000200000000000,
|
||
100000000000200000200000100000100000200000000000,
|
||
100000000000200000200000100000100000200000000000,
|
||
100000000000200000200000100000100000200000000000,
|
||
300000000000200000200000100000100000000000100000,
|
||
100000000000100000000000100000000000300000000000,
|
||
300000000000000000000000500000000000000008000000,
|
||
300000000000000000300000000000000000300000000000,
|
||
#MEASURE 2/4
|
||
300000000000000000000000,
|
||
#MEASURE 4/4
|
||
100000200000000000100000100000000000100000200000,
|
||
000000100000100000000000100000200000000000100000,
|
||
100000000000100000100000100000100000100000000000,
|
||
100000100000100000000000100000000000000000000000,
|
||
100000200000100000100000100000000000100000200000,
|
||
100000100000100000000000100000100000100000000000,
|
||
100000100000100000000000100000000000100000000000,
|
||
100000000000100000000000100000000000000000000000,
|
||
100000100000100000100000100000000000100000100000,
|
||
100000100000100000000000200000200000200000200000,
|
||
200000000000100000100000100000100000100000000000,
|
||
100000000000100000100000100000000000000000000000,
|
||
100000200000100000100000100000000000100000200000,
|
||
100000100000100000000000100000100000100000000000,
|
||
000000000000400000000000400000000000400000000000,
|
||
400000000000300000000000300000000000100000000000,
|
||
100000000000100000000000500000000000000000000000,
|
||
000000000000000000000008000000000000000000000000,
|
||
|
||
|
||
#END
|
||
|
||
|
||
COURSE:Normal
|
||
LEVEL:3
|
||
SCOREINIT:1360
|
||
SCOREDIFF:450
|
||
|
||
|
||
#START
|
||
|
||
|
||
100000000000000000000000200000000000100000000000,
|
||
000000000000200000000000100000000000000000000000,
|
||
200000000000100000000000000000000000000000000000,
|
||
300000000000300000000000300000000000000000000000,
|
||
100000000000000000000000200000000000100000000000,
|
||
000000000000200000000000000000000000000000000000,
|
||
200000000000200000000000100000000000100000000000,
|
||
100000000000000000000000100000000000000000000000,
|
||
100000000000000000000000200000000000000000000000,
|
||
100000000000100000000000200000000000000000000000,
|
||
100000000000000000000000200000000000000000000000,
|
||
100000000000100000000000200000000000000000000000,
|
||
100000000000000000000000100000000000000000000000,
|
||
100000000000100000000000100000000000100000000000,
|
||
100000000000000000000000100000000000000000000000,
|
||
000000100000100000000000100000000000000000000000,
|
||
100000000000000000000000100000000000000000000000,
|
||
100000000000100000000000100000000000100000000000,
|
||
100000000000000000000000100000000000000000000000,
|
||
000000100000100000000000100000000000000000000000,
|
||
100000000000000000000000100000000000000000000000,
|
||
100000000000100000000000100000000000100000000000,
|
||
100000000000000000000000100000000000000000000000,
|
||
200000000000200000000000200000000000000000000000,
|
||
100000000000000000000000100000000000000000000000,
|
||
100000000000100000000000100000000000100000000000,
|
||
100000000000100000000000100000000000100000000000,
|
||
100000000000100000000000100000000000000000000000,
|
||
300000000000000000000000100000100000000000000000,
|
||
100000000000000000000000100000100000000000000000,
|
||
100000000000000000000000100000100000000000000000,
|
||
100000000000000000000000100000100000000000000000,
|
||
300000000000000000000000100000000000000000000000,
|
||
100000000000100000000000100000000000300000000000,
|
||
300000000000000000000000500000000000000000000000,
|
||
000080000000000000000000000000000000000000000000,
|
||
#MEASURE 2/4
|
||
000000000000000000000000,
|
||
#MEASURE 4/4
|
||
100000000000000000000000200000000000100000000000,
|
||
000000000000200000000000100000000000000000000000,
|
||
200000000000100000000000000000000000000000000000,
|
||
300000000000300000000000300000000000000000000000,
|
||
100000000000000000000000200000000000100000000000,
|
||
000000000000200000000000100000000000000000000000,
|
||
100000000000100000000000000000000000100000000000,
|
||
000000000000100000000000100000000000000000000000,
|
||
100000000000000000000000200000000000100000000000,
|
||
000000000000200000000000100000000000000000000000,
|
||
200000000000100000000000000000000000000000000000,
|
||
300000000000300000000000300000000000000000000000,
|
||
100000000000000000000000200000000000100000000000,
|
||
000000000000200000000000100000000000100000000000,
|
||
000000000000200000000000000000000000200000000000,
|
||
000000000000200000000000000000000000100000000000,
|
||
100000000000500000000000000000000000000000000000,
|
||
000000000000000080000000000000000000000000000000,
|
||
|
||
|
||
#END
|
||
|
||
|
||
COURSE:Easy
|
||
LEVEL:4
|
||
SCOREINIT:1610
|
||
SCOREDIFF:750
|
||
|
||
|
||
#START
|
||
|
||
|
||
100000000000000000000000000000000000100000000000,
|
||
000000000000000000000000100000000000000000000000,
|
||
000000000000100000000000000000000000000000000000,
|
||
100000000000000000000000100000000000000000000000,
|
||
100000000000000000000000000000000000100000000000,
|
||
000000000000000000000000100000000000000000000000,
|
||
000000000000100000000000000000000000100000000000,
|
||
100000000000000000000000100000000000000000000000,
|
||
100000000000000000000000000000000000000000000000,
|
||
100000000000000000000000000000000000000000000000,
|
||
100000000000000000000000000000000000000000000000,
|
||
100000000000000000000000000000000000000000000000,
|
||
100000000000000000000000100000000000000000000000,
|
||
100000000000100000000000100000000000000000000000,
|
||
100000000000000000000000100000000000000000000000,
|
||
000000000000000000000000200000000000000000000000,
|
||
100000000000000000000000100000000000000000000000,
|
||
100000000000100000000000100000000000000000000000,
|
||
100000000000000000000000100000000000000000000000,
|
||
000000000000000000000000200000000000000000000000,
|
||
100000000000000000000000100000000000000000000000,
|
||
100000000000100000000000100000000000000000000000,
|
||
100000000000000000000000100000000000000000000000,
|
||
100000000000100000000000100000000000000000000000,
|
||
100000000000000000000000100000000000000000000000,
|
||
100000000000100000000000100000000000000000000000,
|
||
100000000000000000000000100000000000000000000000,
|
||
100000000000100000000000100000000000000000000000,
|
||
300000000000000000000000000000000000000000000000,
|
||
100000000000000000000000100000000000100000000000,
|
||
100000000000000000000000000000000000000000000000,
|
||
000000000000000000000000000000000000000000000000,
|
||
300000000000000000000000100000000000000000000000,
|
||
100000000000000000000000000000000000300000000000,
|
||
300000000000000000000000500000000000000000000000,
|
||
000080000000000000000000000000000000000000000000,
|
||
#MEASURE 2/4
|
||
000000000000000000000000,
|
||
#MEASURE 4/4
|
||
100000000000000000000000000000000000100000000000,
|
||
000000000000000000000000100000000000000000000000,
|
||
000000000000100000000000000000000000000000000000,
|
||
100000000000100000000000100000000000000000000000,
|
||
100000000000000000000000000000000000100000000000,
|
||
000000000000000000000000100000000000000000000000,
|
||
000000000000100000000000000000000000100000000000,
|
||
000000000000100000000000100000000000000000000000,
|
||
100000000000000000000000000000000000100000000000,
|
||
000000000000000000000000100000000000000000000000,
|
||
000000000000100000000000000000000000000000000000,
|
||
100000000000100000000000100000000000000000000000,
|
||
100000000000000000000000000000000000100000000000,
|
||
000000000000000000000000100000000000100000000000,
|
||
000000000000100000000000000000000000100000000000,
|
||
000000000000100000000000000000000000100000000000,
|
||
100000000000500000000000000000000000000000000000,
|
||
000000000000000080000000000000000000000000000000,
|
||
|
||
|
||
#END
|
||
|