forked from ESE/ESE
342 lines
13 KiB
Plaintext
342 lines
13 KiB
Plaintext
//TJADB Project
|
|
TITLE:Clover♣Kakumation
|
|
TITLEJA:クローバー かくめーしょん
|
|
SUBTITLE:--Triple♣Feeling/Sansha Sanyou
|
|
BPM:145
|
|
WAVE:Clover Kakumation.ogg
|
|
OFFSET:-1.818
|
|
DEMOSTART:66.146
|
|
|
|
COURSE:Oni
|
|
LEVEL:8
|
|
SCOREINIT:600
|
|
SCOREDIFF:168
|
|
|
|
|
|
#START
|
|
|
|
|
|
#GOGOSTART
|
|
#SCROLL 1.25
|
|
300000000000000000000000300000000000000000000000,
|
|
300000000000300000000000300000000000400000000000,
|
|
100000200000100000200100000100200000100100200000,
|
|
100000200000100000200100000100200000100200200200,
|
|
100000400000400000000400000000100000101010100000,
|
|
400000400000300000300000400000000000200000000000,
|
|
|
|
#GOGOEND
|
|
#SCROLL 1
|
|
100000000100000000000000000000000000000000200200,
|
|
100000000100000000000000100100000100000100100100,
|
|
100000200000100100200000100000200000100100200000,
|
|
100200100200100200100200100100100000200200100100,
|
|
100000200000100100200000100000200000100100200000,
|
|
100000200000100100200000100000200000100100200000,
|
|
100000200200100000200000100000200200100100100000,
|
|
300000300000300000300000300000000000000000000000,
|
|
100000000100100000100000100100100000200000000000,
|
|
100000000100100000100000100100100000200000000000,
|
|
100000000100100000100000100100100100200000100000,
|
|
200000000000200000000000200000100100100000100100,
|
|
100000000000200000100000100200000000200000000000,
|
|
100000000000200000100000100200000000200000200200,
|
|
100000200000100100200000100000200000100100200000,
|
|
100100100000100100100000100100100000100100100000,
|
|
500000000000000000000000000000000008000000000000,
|
|
100100100000100000200200200000200000100100100000,
|
|
100000200200200000200000100000100100100000100000,
|
|
200200200000200000100100100000100000200200200000,
|
|
200000100100100000100000200000200200200000200000,
|
|
100100100000200000000000100200000000200000000000,
|
|
100100100000200000000000100200000000200000000000,
|
|
100000200000100200000000100000200000100200000100,
|
|
500000000000000000000000000008000000000000000000,
|
|
200000000100100000100000000000200000000000100100,
|
|
100000000000100000100100200000000000200000000000,
|
|
200000000100100000100000000000200000000000100100,
|
|
100000000000100000100100200000000000100000100100,
|
|
100000000000200000000000100200000000200000000000,
|
|
100000000000200000200000100000000000200200100000,
|
|
100000000000200000000000100200000100100200000000,
|
|
300000000000000000000000000000000000000000000000,
|
|
|
|
#GOGOSTART
|
|
#SCROLL 1.25
|
|
100000200200200000200000100000200000100100200000,
|
|
100000200200200000200000100000200000100100200200,
|
|
100000200000100100200000100000200000100100200000,
|
|
100000200000100100200200100000200200100100100000,
|
|
100000100100100000100000100000200000100100200000,
|
|
100000200200200000200000100000200000100100200000,
|
|
100000200200100000200000100000200000101010100000,
|
|
600000000000000000000000000000000008000000000000,
|
|
#SCROLL 1.5
|
|
100000200200200000200000100000200000100100200000,
|
|
100000200200200000200000100000200000100100200200,
|
|
100000200000100100200000100000200000100100200000,
|
|
100100200200100100200200100000200200100100100000,
|
|
100000200200100000200000100000200000200200100000,
|
|
300000000300000000300000300000000000400000000000,
|
|
100000200200100000200000100200200200100000200000,
|
|
100000200200100000200000200200100000100100200000,
|
|
100000200200100000200000200200100100200000200000,
|
|
100000100100100000100000200000200200100100100000,
|
|
#SCROLL 1.75
|
|
300000000000000000000000400000000000000000000000,
|
|
200200200200100100100000200200100100100100100000,
|
|
#SCROLL 2.0
|
|
200000100000200200100000400000000000000000000000,
|
|
|
|
#GOGOEND
|
|
|
|
|
|
#END
|
|
|
|
|
|
COURSE:Hard
|
|
LEVEL:6
|
|
BALLOON:12
|
|
SCOREINIT:590
|
|
SCOREDIFF:173
|
|
|
|
|
|
#START
|
|
|
|
|
|
#GOGOSTART
|
|
#SCROLL 1.25
|
|
300000000000000000000000300000000000000000000000,
|
|
300000000000300000000000300000000000000000000000,
|
|
100000200000000000200000100000200000000000200000,
|
|
100000200000000000200000100000200000100100100000,
|
|
100000400000400000000400000000000000000000000000,
|
|
300000300000300000300000300000000000000000000000,
|
|
#GOGOEND
|
|
#SCROLL 1
|
|
100000000100000000000000000000000000000000100100,
|
|
100000000100000000000000100100000100000000100100,
|
|
100000200000100000200000100000200000100000200000,
|
|
100100100000100100100000100100100000100000000000,
|
|
100000200000000000200000100000200000000000200000,
|
|
100000200000000000200000100000200000000000200000,
|
|
100000200000100000200000100000200000100000200000,
|
|
300000300000300000300000300000000000000000000000,
|
|
100000000100100000100000100000000000200000000000,
|
|
100000000100100000100000100000000000200000000000,
|
|
100000000100100000100000100000000100200000000000,
|
|
200000000000200000000000200000000000000000000000,
|
|
100000000000200000000000100100000000200000000000,
|
|
100000000000200000000000100100000000200000000000,
|
|
100000200000100000200000100000200000100000200000,
|
|
900000000000000000000000000000000000000000000000,
|
|
800000000000000000000000000000000000000000000000,
|
|
100100100000100000200200200000200000100100100000,
|
|
100000000000000000000000000000000000000000000000,
|
|
200200200000200000100100100000100000200200200000,
|
|
200000000000000000000000000000000000000000000000,
|
|
100000000000200000000000100200000000200000000000,
|
|
100000000000200000000000100200000000200000000000,
|
|
300000000300000000300000300000000300000000300000,
|
|
600000000000000000000000000800000000000000000000,
|
|
100000000100100000100000000000200000000000100000,
|
|
000000000000100000100100100000000000100000000000,
|
|
100000000100100000100000000000200000000000100100,
|
|
100000000000100000100100100000000000100000100100,
|
|
100000000000200000000000100100000000200000000000,
|
|
100000000000200000200000100000000000100100100000,
|
|
100000000000200000000000100200000000100200000000,
|
|
300000000000000000000000000000000000000000000000,
|
|
#GOGOSTART
|
|
#SCROLL 1.25
|
|
100000200200200000200000100000000000300000000000,
|
|
100000200200200000200000100000000000400000000000,
|
|
100000100100100000100000200000200200200000200000,
|
|
100000100100100000100000100000000000000000000000,
|
|
100000100100100000100000100000200000100000200000,
|
|
100000200200200000200000100000200000100000200000,
|
|
100000100100100000100000200000200200200000200000,
|
|
600000000000000000000000000800000000000000000000,
|
|
100000200200200000200000100000300000000000300000,
|
|
100000200200200000200000100000400000000000400000,
|
|
100000100100100000100000200000200200200000200000,
|
|
100000100100100000100000100000000000000000000000,
|
|
100000100100100000100000100000200000100100100000,
|
|
300000000300000000300000300000000000300000000000,
|
|
100000100100100000100000200000200200200000200000,
|
|
300000000000300000000000300000000000000000000000,
|
|
100000100100100000100000200000200200200000200000,
|
|
100000100000200000200000100000100000200000200000,
|
|
300000000000000000000000300000000000000000000000,
|
|
200200200000100100100000200200200000100100100000,
|
|
300000000000300000000000400000000000000000000000,
|
|
#GOGOEND
|
|
|
|
|
|
#END
|
|
|
|
|
|
COURSE:Normal
|
|
LEVEL:3
|
|
BALLOON:8
|
|
SCOREINIT:760
|
|
SCOREDIFF:293
|
|
|
|
|
|
#START
|
|
|
|
|
|
#GOGOSTART
|
|
#SCROLL 1.25
|
|
300000000000000000000000300000000000000000000000,
|
|
300000000000300000000000300000000000000000000000,
|
|
100000000000100000000000100000000000000000000000,
|
|
100000000000100000000000100000000000000000000000,
|
|
100000000000100000000000100000000000000000000000,
|
|
300000000000300000000000300000000000000000000000,
|
|
#GOGOEND
|
|
#SCROLL 1
|
|
100000000000000000000000100000000000000000000000,
|
|
100000000000000000000000100000000000000000000000,
|
|
100000000000100000000000100000000000100000000000,
|
|
100000000000100000000000100000000000000000000000,
|
|
100000000000000000000000200000000000000000000000,
|
|
100000000000000000000000200000000000000000000000,
|
|
100000000000100000000000200000000000200000000000,
|
|
300000000000300000000000300000000000000000000000,
|
|
100000000000000000000000100000000000000000000000,
|
|
100000000000100000000000100000000000000000000000,
|
|
200000000000000000000000200000000000000000000000,
|
|
200000000000200000000000200000000000000000000000,
|
|
100000000000000000000000200000000000000000000000,
|
|
100000000000100000000000200000000000000000000000,
|
|
100000000000100000000000200000000000200000000000,
|
|
900000000000000000000000000000000000000000000000,
|
|
800000000000000000000000000000000000000000000000,
|
|
100000000000000000100000000000000000100000000000,
|
|
100000000000000000000000000000000000000000000000,
|
|
100000000000000000100000000000000000100000000000,
|
|
100000000000000000000000000000000000000000000000,
|
|
100000000000100000000000200000000000000000000000,
|
|
100000000000100000000000200000000000000000000000,
|
|
100000000000100000000000200000000000200000000000,
|
|
500000000000000000000000800000000000000000000000,
|
|
100000000000000000000000100000000000000000000000,
|
|
100000000000100000000000100000000000000000000000,
|
|
100000000000000000000000100000000000000000000000,
|
|
100000000000100000000000100000000000000000000000,
|
|
100000000000000000000000200000000000000000000000,
|
|
100000000000100000000000200000000000200000000000,
|
|
500000000000000000000000000000800000000000000000,
|
|
300000000000000000000000000000000000000000000000,
|
|
#GOGOSTART
|
|
#SCROLL 1.25
|
|
300000000000000000000000300000000000300000000000,
|
|
300000000000000000000000300000000000400000000000,
|
|
100000000000100000000000200000000000200000000000,
|
|
100000000000100000000000100000000000000000000000,
|
|
100000000000100000000000200000000000000000000000,
|
|
100000000000100000000000200000000000000000000000,
|
|
100000000000100000000000200000000000200000000000,
|
|
600000000000000000000000800000000000000000000000,
|
|
300000000000000000000000300000000000300000000000,
|
|
300000000000000000000000300000000000400000000000,
|
|
100000000000100000000000200000000000200000000000,
|
|
100000000000100000000000100000000000000000000000,
|
|
100000000000100000000000200000000000000000000000,
|
|
300000000300000000000000400000000000300000000000,
|
|
100000000000100000000000200000000000200000000000,
|
|
300000000000300000000000300000000000000000000000,
|
|
100000000000100000000000200000000000200000000000,
|
|
100000000000100000000000200000000000200000000000,
|
|
300000000000000000000000300000000000000000000000,
|
|
100000000000100000000000200000000000200000000000,
|
|
300000000000300000000000400000000000000000000000,
|
|
#GOGOEND
|
|
|
|
|
|
#END
|
|
|
|
|
|
COURSE:Easy
|
|
LEVEL:3
|
|
BALLOON:6
|
|
SCOREINIT:610
|
|
SCOREDIFF:255
|
|
|
|
|
|
#START
|
|
|
|
|
|
#GOGOSTART
|
|
#SCROLL 1.25
|
|
300000000000000000000000300000000000000000000000,
|
|
300000000000300000000000300000000000000000000000,
|
|
100000000000000000000000100000000000000000000000,
|
|
100000000000000000000000100000000000000000000000,
|
|
100000000000000000000000000000000000000000000000,
|
|
300000000000300000000000300000000000000000000000,
|
|
#GOGOEND
|
|
#SCROLL 1
|
|
100000000000000000000000100000000000000000000000,
|
|
100000000000000000000000100000000000000000000000,
|
|
100000000000100000000000100000000000000000000000,
|
|
100000000000100000000000100000000000000000000000,
|
|
100000000000000000000000100000000000000000000000,
|
|
100000000000000000000000100000000000000000000000,
|
|
100000000000100000000000100000000000000000000000,
|
|
300000000000300000000000300000000000000000000000,
|
|
100000000000000000000000100000000000000000000000,
|
|
100000000000100000000000100000000000000000000000,
|
|
200000000000000000000000200000000000000000000000,
|
|
200000000000200000000000200000000000000000000000,
|
|
100000000000000000000000100000000000000000000000,
|
|
100000000000000000000000100000000000000000000000,
|
|
100000000000100000000000100000000000100000000000,
|
|
900000000000000000000000000000000000000000000000,
|
|
800000000000000000000000000000000000000000000000,
|
|
100000000000000000100000000000000000000000000000,
|
|
100000000000000000000000000000000000000000000000,
|
|
100000000000000000100000000000000000000000000000,
|
|
100000000000000000000000000000000000000000000000,
|
|
100000000000100000000000100000000000000000000000,
|
|
100000000000100000000000100000000000000000000000,
|
|
100000000000100000000000100000000000100000000000,
|
|
500000000000000000000000800000000000000000000000,
|
|
100000000000000000000000100000000000000000000000,
|
|
100000000000100000000000100000000000000000000000,
|
|
100000000000000000000000100000000000000000000000,
|
|
100000000000100000000000100000000000000000000000,
|
|
100000000000000000000000200000000000000000000000,
|
|
100000000000000000000000200000000000000000000000,
|
|
100000000000100000000000100000000000100000000000,
|
|
300000000000000000000000000000000000000000000000,
|
|
#GOGOSTART
|
|
#SCROLL 1.25
|
|
300000000000000000000000300000000000000000000000,
|
|
300000000000000000000000300000000000000000000000,
|
|
100000000000100000000000100000000000000000000000,
|
|
100000000000100000000000100000000000000000000000,
|
|
100000000000000000000000200000000000000000000000,
|
|
100000000000000000000000200000000000000000000000,
|
|
100000000000100000000000100000000000100000000000,
|
|
600000000000000000000000800000000000000000000000,
|
|
300000000000000000000000300000000000000000000000,
|
|
300000000000000000000000300000000000000000000000,
|
|
100000000000100000000000100000000000000000000000,
|
|
100000000000100000000000100000000000000000000000,
|
|
100000000000000000000000200000000000000000000000,
|
|
300000000000000000000000400000000000000000000000,
|
|
100000000000100000000000100000000000100000000000,
|
|
300000000000000000000000300000000000000000000000,
|
|
100000000000100000000000100000000000100000000000,
|
|
100000000000000000000000100000000000000000000000,
|
|
300000000000000000000000300000000000000000000000,
|
|
100000000000100000000000100000000000100000000000,
|
|
300000000000300000000000300000000000000000000000,
|
|
#GOGOEND
|
|
|
|
|
|
#END
|
|
|