Files

405 lines
4.2 KiB
Plaintext

//TJADB Project
TITLE:Connect
TITLEJA:コネクト
SUBTITLE:--ClariS/Puella Magi Madoka☆Magica
SUBTITLEJA:「魔法少女まどか☆」より
BPM:175
WAVE:Connect.ogg
OFFSET:-1.496
DEMOSTART:66.974
COURSE:Oni
LEVEL:5
BALLOON:12,12,12
SCOREINIT:710
SCOREDIFF:160
#START
#MEASURE 2/4
,
#MEASURE 4/4
22,
2,
22,
2,
22,
20000007,
0008,
#MEASURE 3/4
000000000011,
#GOGOSTART
#MEASURE 4/4
1000201110200011,
1010201120102011,
1000201110200011,
1010201110201111,
1000201110200011,
1010201120102000,
30333333,
43,
#GOGOEND
1110200020200010,
01201201,
01201201,
0010200011102000,
1110200020200010,
02202201,
10002001,
12,
1110200010200010,
01201201,
01201201,
0010200011102000,
1110200020200010,
02202220,
30030060,
000000000000000000000008000000000000000000000000,
1000100010111010,
10201120,
1000100010111010,
10201120,
1010201110111000,
1010201110111000,
7,
8,
1000100010112010,
10201120,
1000100010112010,
10201120,
3000201110111000,
3000201110111000,
7,
80001111,
#GOGOSTART
1110201110102000,
3030003000300011,
1010201110102000,
40440111,
1110201110102000,
33030306,
000000000000000000000008000000300000300000600000,
000000000008000000000000100000100000100000100000,
1110201110102000,
3030004000400011,
1010201110102000,
40440111,
1110201110102011,
1010201120102000,
1110201111102000,
300000000000500000000000000000000008000000000000,
3,
#GOGOEND
#END
COURSE:Hard
LEVEL:3
BALLOON:11,10,10
SCOREINIT:830
SCOREDIFF:255
#START
#MEASURE 2/4
,
#MEASURE 4/4
22,
2,
22,
2,
22,
20000007,
,
#MEASURE 3/4
8,
#MEASURE 4/4
#GOGOSTART
10201101,
01102000,
10201101,
01102000,
10201101,
01102000,
5000000000000000
0000000000000000
0000000000000000
0000000000000008,
,
#GOGOEND
11102201,
00102201,
00102201,
00102000,
11102201,
00102000,
12,
12,
11102201,
00102201,
00102201,
00102000,
11102201,
00102000,
30030060,
08,
10101021,
1120,
10101021,
1120,
10201120,
10201120,
7,
8,
10101021,
1120,
10101021,
1120,
30210120,
30210120,
7,
80001111,
#GOGOSTART
10201120,
33030300,
10201120,
40440111,
10201120,
33030305,
0000000000000000
0000000000000000
0000000000000000
0000000000000008,
00001111,
10201120,
33040401,
00201120,
40440111,
10201120,
10210120,
10201120,
3000000000000000
5000000000000000
0000000000000008
0000000000000000,
3,
,
,
#GOGOEND
,
#END
COURSE:1
LEVEL:3
SCOREINIT:1080,6840
SCOREDIFF:428
BALLOON:8,8,8
#START
#MEASURE 2/4
0,
#MEASURE 4/4
22,
2,
22,
2,
22,
2,
7,
#MEASURE 3/4
8,
#MEASURE 4/4
#GOGOSTART
1110,
11102000,
5000000000000000
0000000000000000
0000000000000000
0000000000000008,
,
1110,
11102000,
5000000000000000
0000000000000000
0000000000000000
0000000000000008,
,
1011,
1011,
12,
1,
1011,
1011,
12,
1,
1011,
1011,
12,
1,
1011,
1011,
12,
1,
1110,
12,
1110,
1,
1120,
1120,
7,
8,
1110,
12,
1110,
1,
1120,
1120,
7,
8,
#GOGOSTART
10111010,
2220,
10111010,
40400000,
10111010,
2220,
5000000000000000
0000000000000000
0000000000000000
0000000000000008,
,
10111010,
10040400,
00111010,
5000000000000000
0000000000000000
0000000000000008
0000000000000000,
1120,
11102000,
1120,
3000000000000000
5000000000000000
0000000000000008
0000000000000000,
3,
,
,
#GOGOEND
,
#END
COURSE:0
LEVEL:3
SCOREINIT:980,9080
SCOREDIFF:540
BALLOON:7,7,7
#START
#MEASURE 2/4
0,
#MEASURE 4/4
2,
22,
2,
2,
2,
22,
7,
#MEASURE 3/4
8,
#MEASURE 4/4
#GOGOSTART
1110,
11,
5000000000000000
0000000000000000
0000000000000000
0000000000000008,
,
1110,
11,
5000000000000000
0000000000000000
0000000000000000
0000000000000008,
,
#GOGOEND
1,
11,
1,
1,
11,
1,
22,
2,
1,
11,
1,
1,
11,
1,
22,
2,
1011,
12,
1011,
1,
1011,
1011,
7,
8,
1011,
12,
1011,
1,
12,
12,
7,
8,
#GOGOSTART
1110,
22,
1110,
40400000,
1110,
22,
5000000000000000
0000000000000000
0000000000000000
0000000000000008,
,
1110,
10040400,
1110,
5000000000000000
0000000000000000
0000000000000008
0000000000000000,
12,
1110,
12,
3000000000000000
5000000000000000
0000000000000008
0000000000000000,
3,
,
,
#GOGOEND
,
#END