forked from ESE/ESE
230 lines
8.1 KiB
Plaintext
230 lines
8.1 KiB
Plaintext
//TJADB Project
|
|
TITLE:Cry Baby
|
|
TITLEJA:Cry Baby
|
|
SUBTITLE:--Official HIGE DANdism/Tokyo Revengers
|
|
SUBTITLEJA:Official髭男dism 「東京リベンジャーズ」より
|
|
BPM:100
|
|
WAVE:Cry Baby.ogg
|
|
OFFSET:-2.517
|
|
DEMOSTART:40.917
|
|
|
|
COURSE:Oni
|
|
LEVEL:8
|
|
BALLOON:36
|
|
SCOREINIT:930
|
|
SCOREDIFF:258
|
|
|
|
|
|
#START
|
|
|
|
|
|
100000100020200000200010100000100000200020200020,
|
|
100010000020100000200020100000200000100020200000,
|
|
100000100020100000200010100000100000200020200010,
|
|
100000100020200020200010100000100000200010000000,
|
|
100000100020200000200010100000100000200020200020,
|
|
100000100020200000200020100000200000100020200000,
|
|
100000100020200000200000100000100000200000200020,
|
|
100000100000200010100000100020100000200010100000,
|
|
100000000000200000100200100000100000200000100000,
|
|
100000100100200000000000100000202020200000200000,
|
|
100000100100200000200000100000100100200000000000,
|
|
500000000000000000000008000000100000400000000000,
|
|
100000100000200000100200100000100000200000100000,
|
|
500000000000000000000000000000000008000000100000,
|
|
100000100100200000100000100000100200200000200000,
|
|
100000100200100000200000101010101000101010101000,
|
|
|
|
#GOGOSTART
|
|
100000100000200000200000100000100000200000100010,
|
|
100000200020100000200010100000200020100000200010,
|
|
100000100020200000200010100000100020200000200010,
|
|
100000100020200000200000300000000000300000200000,
|
|
100000100010200000100000100000200010200000100000,
|
|
100000100010200000100000100000200010200000000010,
|
|
100000100010000010000020200000200020000020200050,
|
|
000000000000000800000000100010101010100010101010,
|
|
100000100000200000200000100000100000200000100010,
|
|
100000200020100000200010100000200020100000200010,
|
|
100000200010202020200000100000200010202020200000,
|
|
100000100000200000100000400000000000400000000000,
|
|
100000100010200000100000100000200010200000100000,
|
|
100000100010200000100000300000000020200000000010,
|
|
100000100010000010000020200000200020000020200020,
|
|
000000000010200000100000100010101010100010101010,
|
|
100010006000000000000000000000000000000000000000,
|
|
000008000000000000300000300000400000400000300000,
|
|
100010006000000000000000000000000000000008000000,
|
|
|
|
#GOGOEND
|
|
700000000000000000000000000000000000000000000000,
|
|
0800,
|
|
|
|
|
|
#END
|
|
|
|
|
|
COURSE:Hard
|
|
LEVEL:5
|
|
BALLOON:16,15,28
|
|
SCOREINIT:1020
|
|
SCOREDIFF:300
|
|
|
|
|
|
#START
|
|
|
|
|
|
100000000000200000000000100000200000200000100000,
|
|
100000000000200000000000100000200000200000100000,
|
|
100000000000200000100000200000200000100000100000,
|
|
100000000000200000200000100000100000200000000000,
|
|
100000000000200000000000100000200000200000100000,
|
|
100000000000200000000000100000200000200000100000,
|
|
100000000000200000100000200000200000100000100000,
|
|
200000000000100000100000200000200000100000000000,
|
|
100000000000200000100100100000000000200000100000,
|
|
100000100100100000000000200000000000200000200000,
|
|
100000100000200000100000100000100000200000000000,
|
|
100000000000200000000000100000200000200000000000,
|
|
100000000000200000100100100000000000200000000000,
|
|
700000000000000000000000000000000800000000100000,
|
|
100000200200000000100000100000200200000000100000,
|
|
100000200200000000100000300000000000300000000000,
|
|
#GOGOSTART
|
|
100000100000200000100000000000100000200000200000,
|
|
100000200020000000100010000000200020000000100010,
|
|
000000000010100000000000100000000010100000000000,
|
|
100000000010100000000000400000000000400000000000,
|
|
100000100000200000000000100000000010100000200000,
|
|
100000100000200000000000200000000020200000000000,
|
|
100000000000200000000000200000000000100000000000,
|
|
100000000000200000000000200000000000100000007000,
|
|
000000000000000000000000000000000000000000000000,
|
|
000000000000000000000000800000000000000000000000,
|
|
100000100000200000100000000000100000200000200000,
|
|
100000200020000000100010000000200020000000100010,
|
|
000000000010100000000000100000000020200000000000,
|
|
100000100000200000100000400000000000400000000000,
|
|
100000100000200000000000100000000010100000200000,
|
|
100000100000200000000000300000000000300000000000,
|
|
100000200000200000100000100000200000200000200000,
|
|
100000000020200000300000300000400000400000400000,
|
|
600000000000000000000000000000000000000000000000,
|
|
000080000000000000300000300000400000400000300000,
|
|
600000000000000000000000000000000000000080000000,
|
|
#GOGOEND
|
|
700000000000000000000000000000000000000000000000,
|
|
000000000800000000000000000000000000000000000000,
|
|
|
|
|
|
#END
|
|
|
|
|
|
COURSE:Normal
|
|
LEVEL:3
|
|
BALLOON:11,11,20
|
|
SCOREINIT:1140
|
|
SCOREDIFF:495
|
|
|
|
|
|
#START
|
|
|
|
|
|
100000000000000000000000100000100000000000000000,
|
|
100000000000000000000000100000100000000000000000,
|
|
100000000000000000000000100000100000000000000000,
|
|
100000000000000000000000100000000000100000000000,
|
|
100000000000000000000000200000200000000000000000,
|
|
100000000000000000000000200000200000000000000000,
|
|
100000000000000000000000200000200000200000000000,
|
|
100000000000100000000000200000000000200000000000,
|
|
100000000000000000000000100000000000100000000000,
|
|
100000000000100000000000000000000000200000000000,
|
|
100000000000100000000000000000000000200000000000,
|
|
200000000000000000000000000000000000200000000000,
|
|
100000000000000000100000100000000000100000000000,
|
|
700000000000000000000000000000000800000000100000,
|
|
100000000000000000100000100000000000000000100000,
|
|
100000000000000000000000300000000000300000000000,
|
|
#GOGOSTART
|
|
100000000000100000100000000000000000100000000000,
|
|
100000000000100000000000200000000000200000000000,
|
|
100000000000200000000000100000000000200000000000,
|
|
100000000000100000000000400000000000400000000000,
|
|
100000100000000000100000100000000000200000000000,
|
|
100000100000000000100000100000000000200000000000,
|
|
100000100000000000000000200000200000000000000000,
|
|
700000000000000000000000000000000800000000000000,
|
|
100000000000100000100000000000000000100000000000,
|
|
200000000000200000000000100000000000100000000000,
|
|
100000000000200000000000100000000000200000000000,
|
|
100000100000100000000000400000000000400000000000,
|
|
100000100000000000100000100000000000200000000000,
|
|
100000100000000000000000300000000000300000000000,
|
|
100000100000000000000000200000200000000000000000,
|
|
100000000000000000300000300000000000300000000000,
|
|
600000000000000000000000000000000000000000000000,
|
|
000080000000000000300000300000000000400000000000,
|
|
600000000000000000000000000000000000000080000000,
|
|
#GOGOEND
|
|
700000000000000000000000000000000000000000000000,
|
|
000000000800000000000000000000000000000000000000,
|
|
|
|
|
|
#END
|
|
|
|
|
|
COURSE:Easy
|
|
LEVEL:2
|
|
BALLOON:8,8,8,16
|
|
SCOREINIT:1100
|
|
SCOREDIFF:698
|
|
|
|
|
|
#START
|
|
|
|
|
|
100000000000000000000000100000000000000000000000,
|
|
100000000000000000000000000000000000000000000000,
|
|
100000000000000000000000100000000000000000000000,
|
|
100000000000000000000000100000000000100000000000,
|
|
100000000000000000000000100000000000000000000000,
|
|
100000000000000000000000000000000000000000000000,
|
|
100000000000000000000000100000000000100000000000,
|
|
700000000000000000000000000800000000000000000000,
|
|
100000000000000000000000100000000000000000000000,
|
|
200000000000200000000000000000000000100000000000,
|
|
100000000000100000000000000000000000200000000000,
|
|
200000000000000000000000000000000000200000000000,
|
|
500000000000000000000000000080000000000000000000,
|
|
700000000000000000000000000800000000000000000000,
|
|
100000000000000000000000100000000000000000000000,
|
|
100000000000000000000000300000000000300000000000,
|
|
#GOGOSTART
|
|
100000000000100000000000000000000000100000000000,
|
|
100000000000000000000000100000000000000000000000,
|
|
100000000000200000000000100000000000200000000000,
|
|
100000000000000000000000400000000000400000000000,
|
|
100000000000000000000000100000000000100000000000,
|
|
100000000000000000000000100000000000100000000000,
|
|
100000000000000000000000100000000000000000000000,
|
|
700000000000000000000000000800000000000000000000,
|
|
100000000000100000000000000000000000100000000000,
|
|
100000000000000000000000100000000000000000000000,
|
|
100000000000200000000000100000000000200000000000,
|
|
100000000000000000000000400000000000400000000000,
|
|
100000000000000000000000100000000000200000000000,
|
|
100000000000000000000000300000000000300000000000,
|
|
100000000000000000000000100000000000000000000000,
|
|
100000000000000000000000300000000000300000000000,
|
|
600000000000000000000000000000000000000000000000,
|
|
000080000000000000000000400000000000400000000000,
|
|
600000000000000000000000000000000000000080000000,
|
|
#GOGOEND
|
|
700000000000000000000000000000000000000000000000,
|
|
000000000800000000000000000000000000000000000000,
|
|
|
|
|
|
#END
|
|
|