Files
2023-06-15 19:15:39 -05:00

341 lines
9.5 KiB
Plaintext
Raw Permalink Blame History

This file contains ambiguous Unicode characters
This file contains Unicode characters that might be confused with other characters. If you think that this is intentional, you can safely ignore this warning. Use the Escape button to reveal them.
//TJADB Project
TITLE:Damatte Ore ni Tsuite Koi
TITLEJA:だまって俺についてこい
SUBTITLE:--Yoshimi Tendo/KochiKame: Tokyo Beat Cops
SUBTITLEJA:こちら葛飾区亀有公園前派出所
BPM:107.7
WAVE:Damatte Ore ni Tsuite Koi.ogg
OFFSET:-9.752
DEMOSTART:9.752
COURSE:Oni
LEVEL:6
BALLOON:10,10,10
SCOREINIT:880
SCOREDIFF:220
#START
100000100100100000200200100000000100100000200200,
#BPMCHANGE 108
100100000100100000100000100000100100200200100100,
#BPMCHANGE 107.8
200000000100100000200200100000000100100000200200,
#BPMCHANGE 108
100000000100100000200200100000100000300000000000,
#BPMCHANGE 107
100000100000200000200000100000100000200000200200,
100000100000200000200000100000100000200000200200,
#BPMCHANGE 107.5
000000100000000000100000100000000000100000000000,
#BPMCHANGE 107.3
500000000000000000000000000008000000300000000000,
#BPMCHANGE 108
100000000100100000100000100200000200100000200000,
#BPMCHANGE 108.2
300000005000000000008000000070000000000800000000,
#BPMCHANGE 108
100000100100200200100000200000000000300000000000,
#BPMCHANGE 107.5
100000000100200000100000200000100000100000100000,
#BPMCHANGE 107.75
200000000200200000200000200000100000100000200000,
#BPMCHANGE 108
100000100100200000200000200200000200100000100000,
200000000100100000200000200200100000100000200000,
100100100100200200100100200000000000300000000000,
100000100100100000200200100000000100100000200200,
#BPMCHANGE 108.3
100100000100100000200000300000100100200200100100,
#BPMCHANGE 107.8
200000000100100000200200100000000100100000200200,
#BPMCHANGE 108.3
100000000100100000200200100000100000300000000000,
#BPMCHANGE 107
100000100000200000200100100000100200200000200200,
#BPMCHANGE 106.8
100000100000200000200100100000100200200000200200,
#BPMCHANGE 106.4
000000100000000000100000100000000000100000000000,
#BPMCHANGE 108
500000000000000000000000000008000000300000000000,
#BPMCHANGE 107.75
100000000100100000100000100200000200100000200000,
#BPMCHANGE 108
300000700000000000800000000700000000000800000000,
100000100100200200100000200000000000300000000000,
100000000100200000100000100000400000400000100000,
100000000100200000100000100000400000400000100000,
#BPMCHANGE 108.2
100000000100200000100000100000000000400000000000,
#BPMCHANGE 107.5
100000000100100000100000200000000200200000100000,
#MEASURE 6/4
#BPMCHANGE 107.75
100000000200200000100000000000100000100100200200100000
#BPMCHANGE 100.75
000000000000000000,
#MEASURE 4/4
#BPMCHANGE 95
30
#BPMCHANGE 92
303006,
#MEASURE 5/4
000000000000000000000000
#BPMCHANGE 101
000000000000000000000000000000000008,
#END
COURSE:Hard
LEVEL:3
BALLOON:13
SCOREINIT:1110
SCOREDIFF:290
#START
000000100100100000100000100000000000100000000000,
#BPMCHANGE 108
100100000100100000100000100000000000000000000000,
#BPMCHANGE 107.8
000000000100100000100000100000000100100000100000,
#BPMCHANGE 108
100000000100100000100000100000100000100000000000,
#BPMCHANGE 107
100000100000200000200000100000000000000000000000,
100000100000200000200000100000000000000000000000,
#BPMCHANGE 107.5
000000100000000000100000100000000000100000000000,
#BPMCHANGE 107.3
500000000000000000000800000000000000300000000000,
#BPMCHANGE 108
100000000100100000100000100000000000100000000000,
#BPMCHANGE 108.2
300000000000000000000000000000700000000000000000,
#BPMCHANGE 108
000000000000000000000800000000000000300000000000,
#BPMCHANGE 107.5
100000000100100000100000100000200000200000200000,
#BPMCHANGE 107.75
200000000000000000000000000000100000100000100000,
#BPMCHANGE 108
100000100100100000000000000000000000200000200000,
200000000000000000100000000000100000100000100000,
500000000000000000000800000000000000300000000000,
000000100100100000100000100000000100100000100000,
#BPMCHANGE 108.3
100100000100100000100000100000200200000200200000,
#BPMCHANGE 107.8
200000000100100000100000100000000100100000100000,
#BPMCHANGE 108.3
100000000100100000100000100000100000100000000000,
#BPMCHANGE 107
100000100000200000200000100000100000200000200000,
#BPMCHANGE 106.8
100000100000200000200000100000000000200000200000,
#BPMCHANGE 106.4
000000100000000000100000100000000000100000000000,
#BPMCHANGE 108
500000000000000000000800000000000000300000000000,
#BPMCHANGE 107.75
100000000100100000100000100000000000100000000000,
#BPMCHANGE 108
300000500000000000000000000000000000000800000000,
100000100100100100100000100000000000300000000000,
100000000100100000100000100000200000200000000000,
100000000100100000100000100000200000200000000000,
#BPMCHANGE 108.2
100000000100100000100000100000000000400000000000,
#BPMCHANGE 107.5
100000000100100000100000100000000000000000100000,
#MEASURE 6/4
#BPMCHANGE 107.75
100000000100100000100000000000100000100100100100100000
#BPMCHANGE 100.75
000000000000000000,
#MEASURE 4/4
#BPMCHANGE 95
30
#BPMCHANGE 92
303006,
#MEASURE 5/4
000000000000000000000000
#BPMCHANGE 101
000000000000000000000000000000000008,
#END
COURSE:Normal
LEVEL:3
BALLOON:5
SCOREINIT:1680
SCOREDIFF:660
#START
100000000100100000000000100000000100100000000000,
#BPMCHANGE 108
100000000100100000000000300000000000000000000000,
#BPMCHANGE 107.8
100000000100100000000000100000000100100000000000,
#BPMCHANGE 108
100000000100100000000000100000000000100000000000,
100000000000000000100000100000000000000000000000,
#BPMCHANGE 107
100000000000000000100000100000000000000000000000,
#BPMCHANGE 107.5
000000100000000000100000100000000000100000000000,
#BPMCHANGE 107.3
500000000000000000000000000000800000000000000000,
#BPMCHANGE 108
100000000100100000000000100000000000100000000000,
#BPMCHANGE 108.2
000000500000000000000000000000000000000000000000,
#BPMCHANGE 108
000000000000000800000000000000000000300000000000,
#BPMCHANGE 107.5
000000000000000000000000000000100000100000100000,
#BPMCHANGE 107.75
100000000000000000000000000000000000000000000000,
#BPMCHANGE 108
100000100000100000000000000000000000100000100000,
100000000000000000100000000000100000100000000000,
500000000000000000800000000000000000300000000000,
100000000100100000000000100000000100100000000000,
#BPMCHANGE 108.3
100000000100100000000000300000000000000000000000,
#BPMCHANGE 107.8
100000000100100000000000100000000100100000000000,
#BPMCHANGE 108.3
100000000100100000000000100000000000100000000000,
#BPMCHANGE 107
100000000000000000100000100000000000000000000000,
#BPMCHANGE 106.8
100000000000000000100000100000000000000000000000,
#BPMCHANGE 106.4
000000100000000000100000100000000000100000000000,
#BPMCHANGE 108
500000000000000000000000000000800000000000000000,
#BPMCHANGE 107.75
100000000100100000000000100000000000100000000000,
#BPMCHANGE 108
000000000500000000000000000000000000800000000000,
700000000000000000000800000000000000300000000000,
100000000100100000000000100000000000000000000000,
000000000000000000000000000000200000200000000000,
#BPMCHANGE 108.2
100000000100100000000000100000000000000000000000,
#BPMCHANGE 107.5
100000000100100000000000100000000000000000000000,
#MEASURE 6/4
#BPMCHANGE 107.75
100000000000000000100000000000100000100000000000100000
#BPMCHANGE 100.75
000000000000000000,
#MEASURE 4/4
#BPMCHANGE 95
30
#BPMCHANGE 92
303005,
#MEASURE 5/4
000000000000000000000000
#BPMCHANGE 101
000000000000000000000000000000000008,
#END
COURSE:Easy
LEVEL:2
SCOREINIT:2040
SCOREDIFF:1400
#START
000000000000100000000000100000000000000000000000,
#BPMCHANGE 108
100000000000000000000000300000000000000000000000,
#BPMCHANGE 107.8
000000000000100000000000100000000000000000000000,
#BPMCHANGE 108
100000000000100000000000100000000000100000000000,
#BPMCHANGE 107
000000000000200000000000000000000000200000000000,
000000000000200000000000000000000000200000000000,
#BPMCHANGE 107.5
000000000000100000000000000000000000100000000000,
#BPMCHANGE 107.3
500000000000000000000000000000800000000000000000,
#BPMCHANGE 108
100000000000000000000000100000000000100000000000,
#BPMCHANGE 108.2
100000000000500000000000000000000000000000000000,
#BPMCHANGE 108
000000000000000000800000000000000000300000000000,
#BPMCHANGE 107.5
000000000000000000000000000000000000100000000000,
#BPMCHANGE 107.75
100000000000000000000000000000000000000000000000,
#BPMCHANGE 108
100000100000100000000000000000000000100000000000,
100000000000000000100000000000000000100000000000,
100000000000000000000000000000000000300000000000,
000000000000100000000000100000000000000000000000,
#BPMCHANGE 108.3
100000000000000000000000300000000000000000000000,
#BPMCHANGE 107.8
000000000000100000000000100000000000000000000000,
#BPMCHANGE 108.3
100000000000100000000000100000000000100000000000,
#BPMCHANGE 107
000000000000200000000000000000000000200000000000,
#BPMCHANGE 106.8
000000000000200000000000000000000000200000000000,
#BPMCHANGE 106.4
000000000000100000000000000000000000100000000000,
#BPMCHANGE 108
500000000000000000000000000000800000000000000000,
#BPMCHANGE 107.75
100000000000000000000000100000000000100000000000,
#BPMCHANGE 108
100000000000500000000000000000000000000000000000,
000000000000000000800000000000000000300000000000,
000000000000000000000000000000000000000000000000,
100000000000100000000000100000000000000000000000,
#BPMCHANGE 108.2
200000000000200000000000200000000000000000000000,
#BPMCHANGE 107.5
100000000000100000000000100000000000000000000000,
#MEASURE 6/4
#BPMCHANGE 107.75
100000000000000000100000000000000000100000000000100000
#BPMCHANGE 100.75
000000000000000000,
#MEASURE 4/4
#BPMCHANGE 95
00
#BPMCHANGE 92
000005,
#MEASURE 5/4
000000000000000000000000
#BPMCHANGE 101
000000000000000000000000000000000008,
#END