forked from ESE/ESE
334 lines
13 KiB
Plaintext
334 lines
13 KiB
Plaintext
//TJADB Project
|
|
TITLE:Dang Dang
|
|
TITLEJA:Dang Dang
|
|
SUBTITLE:--ZZ/Eyeshield 21
|
|
SUBTITLEJA:「アイシールド21」より
|
|
BPM:183
|
|
WAVE:Dang Dang.ogg
|
|
OFFSET:-1.458
|
|
DEMOSTART:43.425
|
|
|
|
COURSE:Oni
|
|
LEVEL:7
|
|
SCOREINIT:790
|
|
SCOREDIFF:160
|
|
|
|
|
|
#START
|
|
|
|
|
|
100000000000200000000000100000100000200000000000,
|
|
100000000000200000100000000000100000100000200000,
|
|
100000000000200000000000100000100000200000000000,
|
|
100000000000200000100000000000100000100000200000,
|
|
100000000000200000000000100000100000200000000000,
|
|
100000000000200000100000000000100000100000200000,
|
|
100000000000200000000000100000100000200000000000,
|
|
100000200200200000200000200000200000300000000000,
|
|
100000100000200000100000100000200000000000100000,
|
|
100000100000200000100000000000300000300000300000,
|
|
100000100000200000100000100000200000000000100000,
|
|
200000200000100000100000200000100000400000000000,
|
|
100000100000200000000000100000200000000000100000,
|
|
100000100000200000100000000000300000300000300000,
|
|
100000100000200000000000100000200000000000100000,
|
|
100000100000200000200000100000200000100000200000,
|
|
100000100000200000100000000000100000200000000000,
|
|
100000100000200000100000000000100000200000000000,
|
|
100000100000200000000000100000200000000000200000,
|
|
100000100000200000200000100000200000100000200000,
|
|
100000100000200000100000000000100000200000000000,
|
|
100000100000200000100000000000100000200000000000,
|
|
100000100000200000000000100000200000000000200000,
|
|
100000001000000010000000100000001000000010000000,
|
|
100000000000000000100000200000000000100000100000,
|
|
100000100000000000100000400000000000100000000000,
|
|
100000000000000000100000200000000000100000100000,
|
|
100000100000000000100000200000000000100000000000,
|
|
100000000000000000100000200000000000100000100000,
|
|
100000100000000000100000400000000000100000000000,
|
|
100000200000100000200000100000100000200000200000,
|
|
100000000000200000000000200000000000200000000000,
|
|
|
|
#GOGOSTART
|
|
300000000000300000000000100000100000200000000000,
|
|
100000000000200000100000100000100000200000100000,
|
|
100000000000200000000000100000100000200000100000,
|
|
100000100000200000100000100000100000200000000000,
|
|
300000000000300000000000100000100000200000000000,
|
|
100000000000200000100000100000100000200000100000,
|
|
100000000000200000000000100000100000200000100000,
|
|
100000100000200000100000100000100000200000000000,
|
|
300000000000300000000000100000100000200000100000,
|
|
100000000000200000100000100100100000200000100000,
|
|
100000000000200000100000100100100000200000100000,
|
|
100100100000200000100000100100100000200000100000,
|
|
300000000000300000000000100000100000200000100000,
|
|
100000000000200000100000100100100000200000100000,
|
|
100000000000200000100000100100100000200000100000,
|
|
100100100000200000100000100100100200200000100000,
|
|
|
|
#GOGOEND
|
|
100000000000200000100000100100100000200000100000,
|
|
200000100100100000200000100100100000200000100000,
|
|
100000000000200000100000100100100000200000100000,
|
|
200000100100100000200000100100100000200000100000,
|
|
100000000000200000100000100100100000200000100000,
|
|
200000100100100000200000100100100000200000100000,
|
|
100000000000200000100000100100100000200000100000,
|
|
200000100100100000200000100100100000200000100000,
|
|
|
|
#GOGOSTART
|
|
100000000000200000000000100000100000200000000000,
|
|
100000000000200000100000000000300000300000300000,
|
|
100000000000200000000000100000100000200000000000,
|
|
100000000000200000100000000000300000300000300000,
|
|
|
|
#GOGOEND
|
|
300000000000000000000000000000000000000000000000,
|
|
|
|
|
|
#END
|
|
|
|
|
|
COURSE:Hard
|
|
LEVEL:6
|
|
SCOREINIT:840
|
|
SCOREDIFF:190
|
|
|
|
|
|
#START
|
|
|
|
|
|
100000000000200000000000100000100000200000000000,
|
|
100000000000200000000000100000000000200000000000,
|
|
100000000000200000000000100000100000200000000000,
|
|
100000000000200000000000100000000000200000000000,
|
|
100000000000200000000000100000100000200000000000,
|
|
100000000000200000000000100000000000200000000000,
|
|
100000000000200000000000100000100000200000000000,
|
|
100000200000200000200000200000200000300000000000,
|
|
100000000000200000000000100000100000000000100000,
|
|
000000100000000000100000000000100000100000100000,
|
|
100000000000200000000000100000100000000000100000,
|
|
000000100000000000100000000000000000200000000000,
|
|
100000000000200000000000100000100000200000000000,
|
|
100000000000100000100000000000100000100000100000,
|
|
100000000000200000000000100000100000200000000000,
|
|
100000000000100000000000100000000000000000000000,
|
|
100000000000100000100000000000100000000000000000,
|
|
100000000000200000200000000000100000000000000000,
|
|
100000000000100000000000100000100000000000000000,
|
|
100000100000000000200000200000000000000000000000,
|
|
100000000000100000100000000000100000000000000000,
|
|
100000100000200000200000000000000000000000000000,
|
|
100000100000200000200000000000100000100000100000,
|
|
100000001000000010000000100000000000000000000000,
|
|
100000100000100000100000000000000000100000100000,
|
|
100000100000000000000000200000000000000000000000,
|
|
100000100000100000100000000000000000100000100000,
|
|
100000100000000000000000200000000000200000000000,
|
|
100000100000100000100000000000000000100000100000,
|
|
100000100000000000000000200000000000000000000000,
|
|
100000200000100000200000100000000000100000000000,
|
|
100000000000000000000000000000000000000000000000,
|
|
|
|
#GOGOSTART
|
|
300000000000300000000000100000100000200000000000,
|
|
100000000000200000000000100000100000200000000000,
|
|
100000000000200000000000100000100000200000100000,
|
|
100000000000100000000000100000000000100000000000,
|
|
300000000000300000000000100000100000200000000000,
|
|
100000000000200000000000100000100000200000000000,
|
|
100000000000200000000000100000100000200000100000,
|
|
100000000000100000000000100000000000100000000000,
|
|
300000000000300000000000100000100000200000000000,
|
|
100000000000200000000000100000100000200000000000,
|
|
100000000000200000000000100000100000200000100000,
|
|
100000000000100000000000100000000000100000000000,
|
|
300000000000300000000000100000100000200000000000,
|
|
100000000000200000000000100000100000200000000000,
|
|
100000000000200000000000100000100000200000100000,
|
|
100000000000100000000000100000000000100000000000,
|
|
|
|
#GOGOEND
|
|
000000000000400000000000400000000000000000100000,
|
|
000000100000200000000000100000100000200000000000,
|
|
000000000000400000000000400000000000000000100000,
|
|
000000100000200000000000100000100000200000000000,
|
|
000000000000400000000000400000000000000000100000,
|
|
000000100000200000000000100000100000200000000000,
|
|
000000000000300000000000400000000000000000100000,
|
|
000000100000100000000000100000100000100000100000,
|
|
|
|
#GOGOSTART
|
|
000000000000300000000000300000000000200000000000,
|
|
100000100000200000100000000000300000300000300000,
|
|
000000000000300000000000300000000000200000000000,
|
|
100000100000200000100000000000300000300000300000,
|
|
|
|
#GOGOEND
|
|
300000000000000000000000000000000000000000000000,
|
|
|
|
|
|
#END
|
|
|
|
|
|
COURSE:Normal
|
|
LEVEL:5
|
|
SCOREINIT:830
|
|
SCOREDIFF:260
|
|
|
|
|
|
#START
|
|
|
|
|
|
100000000000200000000000100000000000100000000000,
|
|
100000000000000000000000200000000000000000000000,
|
|
100000000000200000000000100000000000100000000000,
|
|
100000000000000000000000200000000000000000000000,
|
|
100000000000200000000000100000000000100000000000,
|
|
100000000000000000000000200000000000000000000000,
|
|
100000000000200000000000100000000000100000000000,
|
|
100000000000000000000000000000000000000000000000,
|
|
100000000000100000000000100000000000000000100000,
|
|
000000100000000000100000000000000000000000000000,
|
|
100000000000100000000000100000000000000000100000,
|
|
000000100000000000100000000000000000000000000000,
|
|
100000000000100000000000200000000000000000100000,
|
|
100000000000000000100000000000000000000000000000,
|
|
100000000000100000000000200000000000000000100000,
|
|
100000000000100000000000100000000000000000000000,
|
|
100000000000100000100000000000000000000000000000,
|
|
100000000000100000100000000000000000000000000000,
|
|
100000000000200000000000100000000000200000000000,
|
|
100000000000100000000000100000000000000000000000,
|
|
100000000000100000100000000000000000000000000000,
|
|
100000000000100000100000000000000000000000000000,
|
|
100000000000100000000000000000100000100000000000,
|
|
100000000000000000000000000000000000000000000000,
|
|
100000000000000000000000200000000000100000000000,
|
|
100000100000000000000000300000000000000000000000,
|
|
100000000000000000000000100000000000000000000000,
|
|
100000000000100000000000000000000000000000000000,
|
|
100000000000000000000000200000000000100000000000,
|
|
100000100000000000000000300000000000000000000000,
|
|
100000000000100000000000500000000000000000000000,
|
|
000000000000000000000000800000000000000000000000,
|
|
#GOGOSTART
|
|
300000000000300000000000100000000000200000000000,
|
|
100000000000000000000000100000000000200000000000,
|
|
100000000000000000000000100000000000200000000000,
|
|
500000000000000000000000800000000000000000000000,
|
|
300000000000300000000000100000000000200000000000,
|
|
100000000000000000000000100000000000200000000000,
|
|
100000000000000000000000100000000000200000000000,
|
|
100000000000100000000000100000000000100000000000,
|
|
300000000000300000000000100000000000200000000000,
|
|
100000000000000000000000100000000000200000000000,
|
|
100000000000000000000000100000000000200000000000,
|
|
500000000000000000000000800000000000000000000000,
|
|
300000000000300000000000100000000000200000000000,
|
|
100000000000000000000000100000000000200000000000,
|
|
100000000000000000000000100000000000200000000000,
|
|
500000000000000000000000800000000000000000000000,
|
|
#GOGOEND
|
|
000000000000300000000000300000000000000000000000,
|
|
100000000000200000000000100000000000100000000000,
|
|
000000000000300000000000300000000000000000000000,
|
|
100000000000200000000000100000000000100000000000,
|
|
000000000000300000000000300000000000000000000000,
|
|
100000000000200000000000100000000000100000000000,
|
|
000000000000400000000000400000000000000000000000,
|
|
500000000000000000000000800000000000000000000000,
|
|
#GOGOSTART
|
|
000000000000400000000000400000000000000000000000,
|
|
100000000000200000000000000000100000100000100000,
|
|
000000000000400000000000400000000000000000000000,
|
|
100000000000200000000000000000300000300000300000,
|
|
#GOGOEND
|
|
300000000000000000000000000000000000000000000000,
|
|
|
|
|
|
#END
|
|
|
|
|
|
COURSE:Easy
|
|
LEVEL:4
|
|
SCOREINIT:890
|
|
SCOREDIFF:300
|
|
|
|
|
|
#START
|
|
|
|
|
|
100000000000000000000000000000000000000000000000,
|
|
100000000000000000000000200000000000000000000000,
|
|
100000000000000000000000000000000000000000000000,
|
|
100000000000000000000000200000000000000000000000,
|
|
100000000000000000000000000000000000000000000000,
|
|
100000000000000000000000200000000000000000000000,
|
|
100000000000000000000000000000000000000000000000,
|
|
100000000000000000000000000000000000000000000000,
|
|
100000000000100000000000000000000000000000000000,
|
|
100000000000000000000000000000000000000000000000,
|
|
100000000000100000000000000000000000000000000000,
|
|
100000000000000000000000000000000000000000000000,
|
|
100000000000000000000000200000000000000000000000,
|
|
100000000000100000000000100000000000000000000000,
|
|
100000000000000000000000200000000000000000000000,
|
|
100000000000100000000000100000000000000000000000,
|
|
100000000000000000000000200000000000000000000000,
|
|
100000000000000000000000200000000000000000000000,
|
|
100000000000000000000000200000000000000000000000,
|
|
100000000000100000000000100000000000000000000000,
|
|
100000000000000000000000200000000000000000000000,
|
|
100000000000000000000000200000000000000000000000,
|
|
100000000000000000000000200000000000000000000000,
|
|
100000000000000000000000000000000000000000000000,
|
|
100000000000000000000000000000000000000000000000,
|
|
000000000000000000000000300000000000000000000000,
|
|
100000000000000000000000100000000000000000000000,
|
|
100000000000100000000000000000000000000000000000,
|
|
100000000000000000000000000000000000000000000000,
|
|
000000000000000000000000300000000000000000000000,
|
|
100000000000000000000000500000000000000000000000,
|
|
000000000000000000000000800000000000000000000000,
|
|
#GOGOSTART
|
|
300000000000300000000000000000000000000000000000,
|
|
100000000000000000000000200000000000000000000000,
|
|
100000000000000000000000200000000000000000000000,
|
|
500000000000000000000000800000000000000000000000,
|
|
300000000000300000000000000000000000000000000000,
|
|
100000000000000000000000200000000000000000000000,
|
|
100000000000000000000000200000000000000000000000,
|
|
100000000000100000000000100000000000000000000000,
|
|
300000000000300000000000000000000000000000000000,
|
|
100000000000000000000000200000000000000000000000,
|
|
100000000000000000000000200000000000000000000000,
|
|
500000000000000000000000800000000000000000000000,
|
|
300000000000300000000000000000000000000000000000,
|
|
100000000000000000000000200000000000000000000000,
|
|
100000000000000000000000200000000000000000000000,
|
|
500000000000000000000000800000000000000000000000,
|
|
#GOGOEND
|
|
000000000000300000000000300000000000000000000000,
|
|
100000000000000000000000200000000000000000000000,
|
|
000000000000300000000000300000000000000000000000,
|
|
100000000000000000000000200000000000000000000000,
|
|
000000000000300000000000300000000000000000000000,
|
|
100000000000000000000000200000000000000000000000,
|
|
000000000000400000000000400000000000000000000000,
|
|
100000000000100000000000100000000000100000000000,
|
|
#GOGOSTART
|
|
000000000000200000000000200000000000000000000000,
|
|
100000000000000000000000000000100000000000100000,
|
|
000000000000200000000000200000000000000000000000,
|
|
100000000000000000000000000000000000300000000000,
|
|
#GOGOEND
|
|
300000000000000000000000000000000000000000000000,
|
|
|
|
|
|
#END
|
|
|