forked from ESE/ESE
397 lines
18 KiB
Plaintext
397 lines
18 KiB
Plaintext
//TJADB Project
|
|
TITLE:Diamond Happy
|
|
TITLEJA:ダイヤモンドハッピー
|
|
SUBTITLE:--STAR☆ANIS [Waka & Fuuri & Sunao]/Aikatsu!
|
|
SUBTITLEJA:「アイカツ!」より
|
|
BPM:233
|
|
WAVE:Diamond Happy.ogg
|
|
OFFSET:-2.119
|
|
DEMOSTART:54.905
|
|
|
|
COURSE:Edit
|
|
LEVEL:9
|
|
BALLOON:15
|
|
SCOREINIT:590
|
|
SCOREDIFF:150
|
|
|
|
|
|
#START
|
|
|
|
|
|
#SCROLL 3
|
|
300000300000000000000000000000000000000000000000,
|
|
#SCROLL 1
|
|
400000000000000000400000000000000000400000000000,
|
|
#SCROLL 3
|
|
300000300000000000000000000000000000000000000000,
|
|
#SCROLL 1
|
|
400000000000400000000000400000000000400000000000,
|
|
#SCROLL 3
|
|
300000300000000000000000000000000000000000000000,
|
|
#SCROLL 1
|
|
400000000000000000400000000000000000400000000000,
|
|
#SCROLL 3
|
|
600000000000000000000000000000000000000008000000,
|
|
#SCROLL 1
|
|
400000000000000000000000000000000000000000000000,
|
|
|
|
#GOGOSTART
|
|
100000200000100000200000100000200000100100200000,
|
|
100000200000100000200000100000200000100100200000,
|
|
100000200000100000200000100000200000100100200000,
|
|
100000200000000000200000000000200000100100100100,
|
|
100000200000100000200000100000200000100100200000,
|
|
100000200000100000200000100000200000100100200000,
|
|
100000200000100000200000100000200000100100200000,
|
|
100000100000000000000000200000200000000000000000,
|
|
|
|
#GOGOEND
|
|
100000200000000000200000000000200000200000200000,
|
|
100000200000000000200000000000200000200000200000,
|
|
100000200000000000200000000000200000100000200000,
|
|
100000200000000000200000100100100000200000000000,
|
|
100000200000000000200000000000200000200000200000,
|
|
100000200000000000200000000000200000200000200000,
|
|
100000200000000000200000000000200000100000200000,
|
|
100000200000000000200000100100100000200000000000,
|
|
100000200000000000200000100000200000200000000000,
|
|
100000200000000000200200200000100000200000000000,
|
|
100000200000000000200000100000200000200000000000,
|
|
100000200000000000200200200000100000200000000000,
|
|
100000200000000000200000100000200000000000200000,
|
|
100000200000000000200000100000200200200000200000,
|
|
100000200000000000200000100000200200200000100000,
|
|
000000200200200000200200100000200100100000200000,
|
|
100000000000200000200000100000200000200000100000,
|
|
000000000000200000000000000000000000200000000000,
|
|
100000000000200000000000100000000000200000100000,
|
|
000000100000200000200200200000200000100000000000,
|
|
100000000000100000100000200000100000100000200000,
|
|
000000000000100000000000000000000000300000000000,
|
|
300000000000000000000000400000000000000000000000,
|
|
300000000000000000000000400000000000000000000000,
|
|
100000000000200000200000100000200000200000100000,
|
|
000000000000200000000000000000000000200000000000,
|
|
100000000000200000000000100000000000200000100000,
|
|
000000100000200000200200200000200000100000000000,
|
|
100000100000200000200000100000200000200000200000,
|
|
100000100000200000200000100000200000200000200000,
|
|
100100100000200000200000100000200000200000200000,
|
|
100100100000200000200000100100100000500000000000,
|
|
000000000000000000000000000000000000000000000000,
|
|
000000000000000000000000000000000008000000000000,
|
|
300000000000000000300000000000000000300000000000,
|
|
400000000000000000000000000000000000000000000000,
|
|
|
|
#GOGOSTART
|
|
100000000000200200200000200000200000200000100000,
|
|
000000200000100000200200200000200000200000200000,
|
|
100000000000200200200000200000200000200000100000,
|
|
000000200200200000200200100000200100100000200000,
|
|
100000000000100000000000100000200200100000200000,
|
|
100000000000100000000000100000200200100000200000,
|
|
100000000000200000500000000000000000000000000008,
|
|
000000000000400000000000400000000000400000000000,
|
|
100000000000200200200000200000200000200000100000,
|
|
000000200000100000200200200000200000200000200000,
|
|
100000000000200200200000200000200000200000500000,
|
|
000000000008000000000000400000000000400000000000,
|
|
100000000000100000000000100000200200100000200000,
|
|
100000000000100000000000100000200200100000200000,
|
|
100000000000200000500000000000000000000000000000,
|
|
000000000000000000000008000000000000000000000000,
|
|
200000000000200000000000200000100100200000100000,
|
|
200000000000200000000000200000100100200000100000,
|
|
200000000000200000000000200000100100200000100000,
|
|
200000000000200000000000200000100100200000000000,
|
|
|
|
#GOGOEND
|
|
300000000000000000000000000000000000000000000000,
|
|
300000000000000000000000000000000000000000000000,
|
|
#SCROLL 3
|
|
600000000000000000000000000000000008000000000000,
|
|
300000000000300000000000400000000000400000000000,
|
|
|
|
#GOGOSTART
|
|
#SCROLL 1
|
|
100000200000100000200000100000200000100100200000,
|
|
100000200000100000200000100000200000100100200000,
|
|
100000200000100100200000100000200000100100200000,
|
|
100000200000000000200000000000200000100100100100,
|
|
100000200000100000200000100000200000100100200000,
|
|
100000200000100000200000100000200000100100200000,
|
|
100000200000100100200000100000200000100100200000,
|
|
100000100000000000000000200000200000000000000000,
|
|
700000000000000000000000000000000000800000000000,
|
|
#SCROLL 3
|
|
500000000000000000000000000000000000000000000008,
|
|
|
|
#GOGOEND
|
|
|
|
|
|
#END
|
|
|
|
|
|
COURSE:Oni
|
|
LEVEL:6
|
|
BALLOON:13,15
|
|
SCOREINIT:1030
|
|
SCOREDIFF:250
|
|
|
|
|
|
#START
|
|
|
|
|
|
#MEASURE 8/4
|
|
#SCROLL 0.75
|
|
000000000000000000000000000000000000000000000000400000000000000000400000000000000000400000000000,
|
|
000000000000000000000000000000000000000000000000400000000000400000000000400000000000400000000000,
|
|
000000000000000000000000000000000000000000000000400000000000000000400000000000000000400000000000,
|
|
600000000000000000000000000000000000000000000800000000000000000000000000000000000000000000000000,
|
|
#GOGOSTART
|
|
100000000000200000000000100000200000000000100000000000200000200000000000200000000000200000000000,
|
|
100000000000000000200000000000000000200000000000100000200000000000200000000000200000000000000000,
|
|
100000000000200000000000100000200000000000100000000000200000200000000000200000000000200000000000,
|
|
100000000000000000200000000000000000200000000000100000200000000000000000100000200000000000000000,
|
|
#GOGOEND
|
|
100000000000200000000000000000000000200000000000100000000000200000000000000000000000200000000000,
|
|
100000000000200000000000000000000000200000000000100000000000200000000000100000200000000000000000,
|
|
100000000000200000000000000000000000200000000000100000000000200000000000000000000000200000000000,
|
|
100000000000200000000000000000000000200000000000100000000000000000000000200000000000000000000000,
|
|
100000000000200000000000100000000000200000000000000000200000200000000000000000200000200000000000,
|
|
100000000000200000000000100000000000200000000000000000200000200000000000000000200000200000000000,
|
|
100000000000200000000000100000000000200000000000100000000000100000000000200000000000200000000000,
|
|
700000000000000000000000000000000000000000000800000000000000000000000000000000000000000000000000,
|
|
000000000000100000100000200000000000200000100000000000000000200000000000000000000000100000000000,
|
|
200000000000100000000000200000000000100000200000000000000000200000000000100000000000200000000000,
|
|
000000000000100000100000200000200000000000100000000000000000200000000000000000000000100000000000,
|
|
100000000000000000000000200000000000000000000000100000000000000000000000200000000000000000000000,
|
|
000000000000100000100000200000200000000000100000000000000000200000000000000000000000100000000000,
|
|
200000000000100000000000200000000000100000200000000000000000200000000000100000000000200000000000,
|
|
000000000000300000000000300000000000300000000000000000000000400000000000400000000000400000000000,
|
|
000000000000300000000000300000000000300000000000400000000000400000000000400000000000600000000000,
|
|
000000000000000000000000000000000000000000000000000000000000000000000800000000000000000000000000,
|
|
300000000000000000300000000000000000300000000000400000000000000000000000000000000000000000000000,
|
|
#GOGOSTART
|
|
100000000000200000100000000000200000000000100000000000200000100000000000200000000000200000200000,
|
|
100000000000200000100000000000200000000000500000000000000000000000000000000000000000000800000000,
|
|
000000000000100000000000100000000000100000000000200000000000200000000000100000000000100000000000,
|
|
200000000000200000500000000000000000000000000800000000000000200000000000200000000000200000000000,
|
|
100000000000200000100000000000200000000000100000000000200000100000000000200000000000200000200000,
|
|
100000000000200000100000000000200000000000500000000000000800000000000000400000000000400000000000,
|
|
000000000000100000000000100000000000100000000000200000000000200000000000100000000000100000000000,
|
|
200000000000200000500000000000000000000000000000000000000000000000000800000000000000000000000000,
|
|
100000000000100000000000200000100000200000000000100000000000100000000000200000100000200000000000,
|
|
100000000000100000000000200000100000200000000000500000000000000000000800000000000000000000000000,
|
|
#GOGOEND
|
|
300000000000000000000000000000000000000000000000300000000000000000000000000000000000000000000000,
|
|
600000000000000000000000000000000000000000000000000000000000000000000800000000000000000000000000,
|
|
#GOGOSTART
|
|
100000000000200000000000100000200000000000100000000000200000200000000000200000000000200000000000,
|
|
100000000000000000200000000000000000200000000000100000200000000000200000000000200000000000000000,
|
|
100000000000200000000000100000200000000000100000000000200000200000000000200000000000200000000000,
|
|
100000000000000000200000000000000000200000000000100000200000000000000000100000200000000000000000,
|
|
700000000000000000000000000000000000000000000000000000000000000000000800000000000000000000000000,
|
|
#GOGOEND
|
|
|
|
|
|
#END
|
|
|
|
|
|
COURSE:Hard
|
|
LEVEL:5
|
|
BALLOON:11,13,13
|
|
SCOREINIT:1030
|
|
SCOREDIFF:270
|
|
|
|
|
|
#START
|
|
|
|
|
|
#MEASURE 8/4
|
|
#SCROLL 0.75
|
|
300000000000000000000000000000000000000000000000000000000000000000000000000000000000000000000000,
|
|
300000000000000000000000000000000000000000000000400000000000400000000000400000000000400000000000,
|
|
300000000000000000000000000000000000000000000000000000000000000000000000000000000000000000000000,
|
|
600000000000000000000000000000000000000000800000000000000000000000000000000000000000000000000000,
|
|
#GOGOSTART
|
|
100000000000100000000000100000000000000000200000000000200000200000000000200000000000000000000000,
|
|
100000000000000000100000000000000000100000000000200000000000000000000000000000000000000000000000,
|
|
100000000000100000000000100000000000000000200000000000200000200000000000200000000000000000000000,
|
|
100000000000000000100000000000000000100000000000200000000000000000000000200000000000000000000000,
|
|
#GOGOEND
|
|
100000000000100000000000000000000000200000000000100000000000100000000000000000000000200000000000,
|
|
100000000000100000000000000000000000200000000000100000000000100000000000200000000000000000000000,
|
|
100000000000100000000000000000000000200000000000100000000000100000000000000000000000200000000000,
|
|
100000000000100000000000000000000000200000000000100000000000100000000000200000000000000000000000,
|
|
100000000000100000000000200000000000200000000000000000000000200000000000200000000000000000000000,
|
|
100000000000100000000000200000000000200000000000000000000000200000000000200000000000000000000000,
|
|
100000000000100000000000200000000000000000000000100000000000100000000000200000000000000000000000,
|
|
700000000000000000000000000000000000000000000000000000000000800000000000000000000000000000000000,
|
|
000000000000100000100000100000000000000000200000000000000000200000000000000000000000100000000000,
|
|
100000000000100000000000200000000000000000100000000000000000200000000000200000000000200000000000,
|
|
000000000000100000100000100000000000000000200000000000000000200000000000000000000000100000000000,
|
|
100000000000000000000000200000000000000000000000100000000000000000000000200000000000000000000000,
|
|
000000000000100000100000100000000000000000200000000000000000200000000000000000000000100000000000,
|
|
100000000000100000000000200000000000000000100000000000000000200000000000200000000000200000000000,
|
|
000000000000300000000000300000000000300000000000000000000000400000000000400000000000400000000000,
|
|
000000000000300000000000300000000000300000000000400000000000400000000000400000000000900000000000,
|
|
,
|
|
8,
|
|
#GOGOSTART
|
|
100000000000100000100000000000000000000000200000000000200000200000000000000000000000100000100000,
|
|
100000000000100000100000000000100000000000500000000000000000000000000000000000000000800000000000,
|
|
000000000000100000000000100000000000100000000000200000000000200000000000200000000000000000000000,
|
|
500000000000000000000000000000000000000000800000000000000000000000000000000000000000000000000000,
|
|
100000000000100000100000000000000000000000200000000000200000200000000000000000000000100000100000,
|
|
100000000000100000100000000000100000000000500000000000000000000000000000000000000000800000000000,
|
|
000000000000100000000000100000000000100000000000200000000000200000000000200000000000000000000000,
|
|
500000000000000000000000000000000000000000000000000000000000000000800000000000000000000000000000,
|
|
100000000000100000000000200000000000200000000000100000000000100000000000200000000000200000000000,
|
|
100000000000100000000000200000000000200000000000500000000000000000800000000000000000000000000000,
|
|
#GOGOEND
|
|
300000000000000000000000000000000000000000000000300000000000000000000000000000000000000000000000,
|
|
600000000000000000000000000000000000000000000000000000000000000000800000000000000000000000000000,
|
|
#GOGOSTART
|
|
100000000000100000000000100000000000000000200000000000200000200000000000200000000000000000000000,
|
|
100000000000000000100000000000000000100000000000200000000000000000000000000000000000000000000000,
|
|
100000000000100000000000100000000000000000200000000000200000200000000000200000000000000000000000,
|
|
100000000000000000100000000000000000100000000000200000000000000000000000200000000000000000000000,
|
|
700000000000000000000000000000000000000000000000000000000000000000000000000000000000000000800000,
|
|
#GOGOEND
|
|
|
|
|
|
#END
|
|
|
|
|
|
COURSE:Normal
|
|
LEVEL:3
|
|
BALLOON:6,10,10
|
|
SCOREINIT:1340
|
|
SCOREDIFF:470
|
|
|
|
|
|
#START
|
|
|
|
|
|
#SCROLL 0.5
|
|
300000000000000000000000000000000000000000000000,
|
|
300000000000000000000000600000000000000000800000,
|
|
000000000000000000000000000000000000000000000000,
|
|
600000000000000000800000000000000000000000000000,
|
|
#GOGOSTART
|
|
100000100000100000000000200000000000200000000000,
|
|
100000000000000000000000200000000000000000000000,
|
|
100000100000100000000000200000000000200000000000,
|
|
100000000000000000000000200000000000200000000000,
|
|
#GOGOEND
|
|
100000000000000000000000100000000000100000000000,
|
|
100000000000000000000000000000000000000000000000,
|
|
100000000000000000000000100000000000100000000000,
|
|
100000000000000000000000000000000000000000000000,
|
|
200000000000200000000000000000000000000000000000,
|
|
200000000000200000000000000000000000000000000000,
|
|
100000000000000000000000100000000000100000000000,
|
|
700000000000000000000000000000800000000000000000,
|
|
000000000000200000000000200000000000000000000000,
|
|
100000000000100000000000200000000000200000000000,
|
|
000000000000200000000000200000000000000000000000,
|
|
100000000000200000000000100000000000200000000000,
|
|
000000000000200000000000200000000000000000000000,
|
|
100000000000100000000000200000000000200000000000,
|
|
000000000000100000000000000000000000100000000000,
|
|
000000000000100000000000100000000000000000900000,
|
|
000000000000000000000000000000000000000000800000,
|
|
,
|
|
8,
|
|
#GOGOSTART
|
|
100000100000100000000500000000800000000000000000,
|
|
100000100000100000000500000000800000000000000000,
|
|
100000100000100000000000200000200000200000000000,
|
|
500000000000000000000800000000000000000000000000,
|
|
100000100000100000000500000000800000000000000000,
|
|
100000100000100000000500000000800000000000000000,
|
|
100000100000100000000000200000200000200000000000,
|
|
500000000000000000000000000800000000000000000000,
|
|
100000100000100000000000100000100000100000000000,
|
|
100000100000100000000000200000000000000000000000,
|
|
#GOGOEND
|
|
300000000000000000000000300000000000000000000000,
|
|
600000000000000000000000800000000000000000000000,
|
|
#GOGOSTART
|
|
100000100000100000000000200000000000200000000000,
|
|
100000000000000000000000200000000000000000000000,
|
|
100000100000100000000000200000000000200000000000,
|
|
100000000000000000000000200000000000200000000000,
|
|
700000000000000000000000000000000000000000800000,
|
|
#GOGOEND
|
|
|
|
|
|
#END
|
|
|
|
|
|
COURSE:Easy
|
|
LEVEL:2
|
|
BALLOON:4,7,7
|
|
SCOREINIT:1210
|
|
SCOREDIFF:550
|
|
|
|
|
|
#START
|
|
|
|
|
|
#SCROLL 0.5
|
|
300000000000000000000000000000000000000000000000,
|
|
300000000000000000000000600000000000000000800000,
|
|
000000000000000000000000000000000000000000000000,
|
|
600000000000000000800000000000000000000000000000,
|
|
#GOGOSTART
|
|
100000000000000000000000100000000000000000000000,
|
|
100000000000100000000000100000000000000000000000,
|
|
100000000000000000000000100000000000000000000000,
|
|
100000000000100000000000100000000000000000000000,
|
|
#GOGOEND
|
|
100000000000000000000000100000000000000000000000,
|
|
100000000000000000000000000000000000000000000000,
|
|
100000000000000000000000100000000000000000000000,
|
|
100000000000000000000000000000000000000000000000,
|
|
200000000000000000000000000000000000000000000000,
|
|
200000000000000000000000000000000000000000000000,
|
|
100000000000000000000000100000000000000000000000,
|
|
700000000000000000000000000000800000000000000000,
|
|
000000000000200000000000200000000000000000000000,
|
|
100000000000100000000000100000000000100000000000,
|
|
000000000000200000000000200000000000000000000000,
|
|
100000000000100000000000100000000000100000000000,
|
|
000000000000200000000000200000000000000000000000,
|
|
100000000000100000000000100000000000100000000000,
|
|
000000000000100000000000000000000000100000000000,
|
|
000000000000100000000000100000000000000000900000,
|
|
,
|
|
8,
|
|
#GOGOSTART
|
|
300000000000000000000600000000800000000000000000,
|
|
300000000000000000000600000000800000000000000000,
|
|
100000000000000000000000100000000000100000000000,
|
|
500000000000000000000800000000000000000000000000,
|
|
300000000000000000000600000000800000000000000000,
|
|
300000000000000000000600000000800000000000000000,
|
|
100000000000000000000000100000000000100000000000,
|
|
500000000000000000000000000800000000000000000000,
|
|
100000000000100000000000100000000000000000000000,
|
|
100000000000100000000000100000000000000000000000,
|
|
#GOGOEND
|
|
300000000000000000000000300000000000000000000000,
|
|
600000000000000000000000800000000000000000000000,
|
|
#GOGOSTART
|
|
100000000000000000000000200000000000000000000000,
|
|
100000000000100000000000100000000000000000000000,
|
|
100000000000000000000000200000000000000000000000,
|
|
100000000000100000000000100000000000000000000000,
|
|
700000000000000000000000000000000000000000800000,
|
|
#GOGOEND
|
|
|
|
|
|
#END
|
|
|