forked from ESE/ESE
363 lines
4.1 KiB
Plaintext
363 lines
4.1 KiB
Plaintext
//TJADB Project
|
|
TITLE:Dokkin♢Mahou Tsukai Pretty Cure!
|
|
TITLEJA:Dokkin 魔法つかいプリキュア!
|
|
SUBTITLE:--Rie Kitagawa/Mahou Tsukai Pretty Cure!
|
|
BPM:176
|
|
WAVE:Dokkin Mahou Tsukai Pretty Cure!.ogg
|
|
OFFSET:-2.075
|
|
DEMOSTART:12.778
|
|
|
|
COURSE:Oni
|
|
LEVEL:5
|
|
BALLOON:6,8,6
|
|
SCOREINIT:730
|
|
SCOREDIFF:203
|
|
|
|
|
|
#START
|
|
|
|
|
|
12021222,
|
|
12021222,
|
|
12021020,
|
|
3,
|
|
12121222,
|
|
12121222,
|
|
12121020,
|
|
30220221,
|
|
|
|
#GOGOSTART
|
|
0010222010100010,
|
|
0010222010100010,
|
|
0010222010100050,
|
|
000000000000000008000000000000000000000000100000,
|
|
0010222010100010,
|
|
0010222010100000,
|
|
30003003,
|
|
04033000,
|
|
|
|
#GOGOEND
|
|
1000202011102010,
|
|
0010202011102020,
|
|
1000202011100030,
|
|
03030440,
|
|
1000202011102010,
|
|
0010202011102000,
|
|
30004403,
|
|
04020220,
|
|
10221120,
|
|
10221120,
|
|
500000000008000000000000700000000000000000000000,
|
|
80020220,
|
|
10221120,
|
|
10221122,
|
|
11221127,
|
|
08,
|
|
10121010,
|
|
12121010,
|
|
10121210,
|
|
10170008,
|
|
12101120,
|
|
12101120,
|
|
333444,
|
|
300000003000000040000000600000000000000000000008,
|
|
00220221,
|
|
|
|
#GOGOSTART
|
|
0010222010100010,
|
|
0010222010100010,
|
|
0010222010100050,
|
|
000000000000000008000000000000000000000000100000,
|
|
0010222010200010,
|
|
0010222010200030,
|
|
30003403,
|
|
00220221,
|
|
0010222010200010,
|
|
0010222010200010,
|
|
0010222010200050,
|
|
000000000000000008000000000000000000000000100000,
|
|
0020222010200010,
|
|
0020222010200000,
|
|
30003003,
|
|
04033000,
|
|
|
|
#GOGOEND
|
|
12021222,
|
|
12021222,
|
|
12021020,
|
|
3,
|
|
12121222,
|
|
12121222,
|
|
12121020,
|
|
3,
|
|
|
|
|
|
#END
|
|
|
|
|
|
COURSE:Hard
|
|
LEVEL:4
|
|
BALLOON:5,6,5
|
|
SCOREINIT:700
|
|
SCOREDIFF:210
|
|
|
|
|
|
#START
|
|
|
|
|
|
11011022,
|
|
11011022,
|
|
11011020,
|
|
3,
|
|
11011022,
|
|
11011022,
|
|
11011020,
|
|
30220221,
|
|
|
|
#GOGOSTART
|
|
01102201,
|
|
01102201,
|
|
01102205,
|
|
000000000000000008000000000000000000000000100000,
|
|
01102201,
|
|
01102200,
|
|
30003003,
|
|
03033000,
|
|
|
|
#GOGOEND
|
|
10201001,
|
|
01011020,
|
|
10201003,
|
|
03030440,
|
|
10201001,
|
|
01011020,
|
|
30003303,
|
|
03020220,
|
|
1212,
|
|
10221020,
|
|
500000000008000000000000700000000000000000000000,
|
|
80020220,
|
|
1212,
|
|
10221020,
|
|
11102227,
|
|
00080000,
|
|
10121010,
|
|
10121010,
|
|
10121010,
|
|
10070080,
|
|
10112010,
|
|
10112010,
|
|
333444,
|
|
300000003000000030000000600000000000000000000008,
|
|
00220221,
|
|
|
|
#GOGOSTART
|
|
01102201,
|
|
01102201,
|
|
01102205,
|
|
000000000000000008000000000000000000000000100000,
|
|
01102201,
|
|
01102203,
|
|
30003303,
|
|
00220221,
|
|
02201101,
|
|
02201101,
|
|
02201105,
|
|
000000000000000008000000000000000000000000100000,
|
|
02201101,
|
|
02201100,
|
|
30003003,
|
|
03033000,
|
|
|
|
#GOGOEND
|
|
11011022,
|
|
11011022,
|
|
11011020,
|
|
3,
|
|
11011022,
|
|
11011022,
|
|
11221020,
|
|
3,
|
|
|
|
|
|
#END
|
|
|
|
|
|
COURSE:Normal
|
|
LEVEL:2
|
|
BALLOON:8
|
|
SCOREINIT:1030
|
|
SCOREDIFF:585
|
|
|
|
|
|
#START
|
|
|
|
|
|
#SCROLL 0.8
|
|
0022,
|
|
0022,
|
|
0022,
|
|
4,
|
|
0022,
|
|
0022,
|
|
0022,
|
|
40000001,
|
|
|
|
#GOGOSTART
|
|
00000001,
|
|
00000001,
|
|
00001003,
|
|
00000001,
|
|
00000001,
|
|
01,
|
|
30003003,
|
|
03,
|
|
|
|
#GOGOEND
|
|
1110,
|
|
2220,
|
|
10001003,
|
|
,
|
|
1110,
|
|
2220,
|
|
9009,
|
|
8,
|
|
12,
|
|
1110,
|
|
500000000000000000000000000000000000000000000008,
|
|
,
|
|
12,
|
|
1110,
|
|
20202005,
|
|
000000000000000008000000000000000000000000000000,
|
|
1110,
|
|
1110,
|
|
1111,
|
|
500000000000000000000000000008000000000000000000,
|
|
1110,
|
|
2220,
|
|
34,
|
|
300000000000000000000000600000000000000000000008,
|
|
00000001,
|
|
|
|
#GOGOSTART
|
|
00000001,
|
|
00000001,
|
|
00001003,
|
|
00000001,
|
|
00000001,
|
|
01,
|
|
30003003,
|
|
00000001,
|
|
00001001,
|
|
00001001,
|
|
00002003,
|
|
00000001,
|
|
00001001,
|
|
02,
|
|
30003003,
|
|
03,
|
|
|
|
#GOGOEND
|
|
0022,
|
|
0022,
|
|
0022,
|
|
4,
|
|
0022,
|
|
0022,
|
|
0022,
|
|
4,
|
|
|
|
|
|
#END
|
|
|
|
|
|
COURSE:Easy
|
|
LEVEL:1
|
|
BALLOON:7
|
|
SCOREINIT:1350
|
|
SCOREDIFF:1320
|
|
|
|
|
|
#START
|
|
|
|
|
|
#SCROLL 0.8
|
|
01,
|
|
01,
|
|
01,
|
|
3,
|
|
01,
|
|
01,
|
|
01,
|
|
30000001,
|
|
|
|
#GOGOSTART
|
|
00000001,
|
|
00000005,
|
|
,
|
|
000000000008000000000000000000000000000000100000,
|
|
00000001,
|
|
,
|
|
30000003,
|
|
03,
|
|
|
|
#GOGOEND
|
|
1,
|
|
11,
|
|
10000003,
|
|
,
|
|
1,
|
|
11,
|
|
9009,
|
|
8,
|
|
11,
|
|
1,
|
|
500000000000000000000000000000000000000000000008,
|
|
,
|
|
11,
|
|
1,
|
|
5,
|
|
000000000008000000000000000000000000000000000000,
|
|
11,
|
|
1,
|
|
11,
|
|
3,
|
|
11,
|
|
11,
|
|
6,
|
|
000000000000000000000000000000000000000000000008,
|
|
00000001,
|
|
|
|
#GOGOSTART
|
|
00000001,
|
|
00000005,
|
|
,
|
|
000000000008000000000000000000000000000000100000,
|
|
00000001,
|
|
,
|
|
600000000000000000000000000000000000000008000000,
|
|
00000001,
|
|
00000001,
|
|
00000005,
|
|
,
|
|
000000000008000000000000000000000000000000100000,
|
|
00000001,
|
|
,
|
|
30000003,
|
|
03,
|
|
|
|
#GOGOEND
|
|
01,
|
|
01,
|
|
01,
|
|
3,
|
|
01,
|
|
01,
|
|
01,
|
|
3,
|
|
|
|
|
|
#END
|
|
|