forked from ESE/ESE
361 lines
3.2 KiB
Plaintext
361 lines
3.2 KiB
Plaintext
//TJADB Project
|
|
TITLE:Doremi Fasorairo
|
|
TITLEJA:ドレミファソライロ
|
|
SUBTITLE:--Dream5/Tamagotchi! Yume Kira Dream
|
|
SUBTITLEJA:「たまごっち!ゆめキラドリーム」より
|
|
BPM:176
|
|
WAVE:Doremi Fasorairo.ogg
|
|
OFFSET:-2.069
|
|
DEMOSTART:50.379
|
|
|
|
COURSE:Oni
|
|
LEVEL:5
|
|
BALLOON:4,15,4
|
|
SCOREINIT:640
|
|
SCOREDIFF:160
|
|
NOTESDESIGNER3:Nocchi
|
|
|
|
|
|
#START
|
|
|
|
|
|
#GOGOSTART
|
|
10012002,
|
|
12012120,
|
|
33334444,
|
|
03037008,
|
|
|
|
#GOGOEND
|
|
10201121,
|
|
0010200011102000,
|
|
10201121,
|
|
0010200011102000,
|
|
10201121,
|
|
0010200011102000,
|
|
30003033,
|
|
03303000,
|
|
10201120,
|
|
11210120,
|
|
3436,
|
|
000000000000000000000008000000000000000000000000,
|
|
10210120,
|
|
11210120,
|
|
10212121,
|
|
01101000,
|
|
10201120,
|
|
11210120,
|
|
3436,
|
|
000000000000000000000008000000000000000000000000,
|
|
10201120,
|
|
11212120,
|
|
33301121,
|
|
01201120,
|
|
44401121,
|
|
01201120,
|
|
10212121,
|
|
1000201020112000,
|
|
33,
|
|
34,
|
|
7,
|
|
8000000011102010,
|
|
|
|
#GOGOSTART
|
|
0010200011102010,
|
|
0010200011102010,
|
|
01211025,
|
|
000000000008000000000000100100100000200000100000,
|
|
0010200011102010,
|
|
0010200011102010,
|
|
0010201010002011,
|
|
1010200011102010,
|
|
0010200011102010,
|
|
0010200011102010,
|
|
01211025,
|
|
000000000008000000000000100100100000200000100000,
|
|
0010200011102010,
|
|
0010200011102010,
|
|
0010201010002011,
|
|
11404040,
|
|
10012002,
|
|
12012120,
|
|
33334444,
|
|
03037008,
|
|
|
|
#GOGOEND
|
|
10201121,
|
|
0010200011102000,
|
|
10201121,
|
|
0010200011102000,
|
|
10201121,
|
|
0010200011102000,
|
|
30003033,
|
|
03303000,
|
|
33334444,
|
|
|
|
|
|
#END
|
|
|
|
|
|
COURSE:Hard
|
|
LEVEL:3
|
|
BALLOON:10,14,10,10
|
|
SCOREINIT:770
|
|
SCOREDIFF:235
|
|
|
|
|
|
#START
|
|
|
|
|
|
#GOGOSTART
|
|
33,
|
|
33,
|
|
9,
|
|
08,
|
|
|
|
#GOGOEND
|
|
1212,
|
|
1212,
|
|
3333,
|
|
4444,
|
|
1212,
|
|
1212,
|
|
30003033,
|
|
03303000,
|
|
10201120,
|
|
10210120,
|
|
3336,
|
|
08,
|
|
10201120,
|
|
10210120,
|
|
10201115,
|
|
08,
|
|
10201120,
|
|
10210120,
|
|
3336,
|
|
08,
|
|
10201120,
|
|
10212120,
|
|
33301101,
|
|
01201020,
|
|
44401101,
|
|
01201020,
|
|
0222,
|
|
10220000,
|
|
33,
|
|
33,
|
|
7,
|
|
80001115,
|
|
|
|
#GOGOSTART
|
|
00801115,
|
|
00801011,
|
|
01201021,
|
|
00001115,
|
|
00801115,
|
|
00801011,
|
|
01201022,
|
|
00001115,
|
|
00801115,
|
|
00801011,
|
|
01201021,
|
|
00001115,
|
|
00801115,
|
|
00801011,
|
|
01201022,
|
|
0444,
|
|
33,
|
|
33,
|
|
9,
|
|
08,
|
|
|
|
#GOGOEND
|
|
1212,
|
|
1212,
|
|
3333,
|
|
4444,
|
|
1212,
|
|
1212,
|
|
30003033,
|
|
03303000,
|
|
70000008,
|
|
|
|
|
|
#END
|
|
|
|
|
|
COURSE:Normal
|
|
LEVEL:2
|
|
BALLOON:8,5,5,8,10,10
|
|
SCOREINIT:950
|
|
SCOREDIFF:415
|
|
|
|
|
|
#START
|
|
|
|
|
|
#GOGOSTART
|
|
#SCROLL 0.8
|
|
3,
|
|
3,
|
|
9,
|
|
08,
|
|
|
|
#GOGOEND
|
|
1011,
|
|
11,
|
|
3333,
|
|
4444,
|
|
1011,
|
|
11,
|
|
30003006,
|
|
08,
|
|
12,
|
|
12,
|
|
3336,
|
|
08,
|
|
12,
|
|
1110,
|
|
10001005,
|
|
08,
|
|
12,
|
|
12,
|
|
3336,
|
|
08,
|
|
12,
|
|
1110,
|
|
7008,
|
|
0011,
|
|
7008,
|
|
0022,
|
|
0111,
|
|
12,
|
|
33,
|
|
33,
|
|
7,
|
|
80001005,
|
|
|
|
#GOGOSTART
|
|
00801005,
|
|
0811,
|
|
12,
|
|
20001005,
|
|
00801005,
|
|
0811,
|
|
11,
|
|
10001005,
|
|
00801005,
|
|
0811,
|
|
12,
|
|
20001005,
|
|
00801005,
|
|
0811,
|
|
11,
|
|
1444,
|
|
3,
|
|
3,
|
|
9,
|
|
08,
|
|
|
|
#GOGOEND
|
|
1011,
|
|
11,
|
|
3333,
|
|
4444,
|
|
1011,
|
|
11,
|
|
30003006,
|
|
08,
|
|
70000008,
|
|
|
|
|
|
#END
|
|
|
|
|
|
COURSE:Easy
|
|
LEVEL:2
|
|
BALLOON:4,4,4,4,8,4,4
|
|
SCOREINIT:1000
|
|
SCOREDIFF:643
|
|
|
|
|
|
#START
|
|
|
|
|
|
#GOGOSTART
|
|
#SCROLL 0.8
|
|
3,
|
|
3,
|
|
9,
|
|
08
|
|
|
|
#GOGOEND
|
|
1,
|
|
1,
|
|
33,
|
|
44,
|
|
1,
|
|
1,
|
|
30003006,
|
|
08,
|
|
11,
|
|
1,
|
|
3036,
|
|
08,
|
|
1,
|
|
1,
|
|
10001005,
|
|
08,
|
|
11,
|
|
1,
|
|
3036,
|
|
08,
|
|
1,
|
|
1110,
|
|
7008,
|
|
01,
|
|
7008,
|
|
01,
|
|
11,
|
|
1,
|
|
33,
|
|
33,
|
|
7,
|
|
8011,
|
|
|
|
#GOGOSTART
|
|
0011,
|
|
01,
|
|
11,
|
|
1011,
|
|
0011,
|
|
01,
|
|
5,
|
|
08001010,
|
|
0011,
|
|
01,
|
|
11,
|
|
1011,
|
|
0011,
|
|
01,
|
|
7,
|
|
0008,
|
|
3,
|
|
3,
|
|
9,
|
|
08,
|
|
|
|
#GOGOEND
|
|
1,
|
|
1,
|
|
33,
|
|
44,
|
|
1,
|
|
1,
|
|
30003006,
|
|
08,
|
|
70000008,
|
|
|
|
|
|
#END
|
|
|