Files
2023-06-15 19:00:23 -05:00

314 lines
3.8 KiB
Plaintext

//TJADB Project
TITLE:Doubutsu Sentai Zyuohger
TITLEJA:動物戦隊ジュウオウジャー
SUBTITLE:--Hideaki Takatori/Doubutsu Sentai Zyuohger
BPM:174
WAVE:Doubutsu Sentai Zyuohger.ogg
OFFSET:-1.669
DEMOSTART:52.990
COURSE:Oni
LEVEL:5
BALLOON:20,16
SCOREINIT:1070
SCOREDIFF:250
#START
1,
1,
1,
20020020,
1,
1,
1,
500000000000000000000000000000000008000000000000,
30030030,
03003030,
7,
0008,
10110110,
11011030,
10110112,
01201010,
10110112,
01202020,
10110110,
1115,
000000000000000000000008000000000000100000000000,
1010201000222020,
10210112,
0010200011102000,
10210112,
0010202000222020,
10210120,
1115,
000000000000000000000000000000000000000000000008,
0033,
11103030,
11103030,
11103030,
11102010,
1110100020001000,
1110100010007000,
,
8333,
#GOGOSTART
3000203000111000,
3000203000111000,
10220115,
000000000008000000000000300000000000000000000000,
2020101000222010,
0010201000222000,
11111111,
0333,
3000203000111000,
3000203000111000,
10220115,
000000000000000000000008000000000000100000000000,
10220223,
01212126,
000000000000000000000000000008000000000000000000,
3030303000111030,
03600000,
000000000000000008000000300000300000300000300000,
#GOGOEND
#END
COURSE:Hard
LEVEL:3
BALLOON:25,12,15
SCOREINIT:1010
SCOREDIFF:260
#START
1,
1,
1,
,
1,
1,
1,
500000000000000000000000000000000000000008000000,
30030030,
03003030,
9,
00,
8,
,
10010010,
01001000,
10010010,
02002000,
10010010,
01001050,
000000000000000000000000000000000008000000000000,
11210300,
10201120,
11201120,
10201120,
20120120,
10201120,
1115,
000000000000000000000000000000000000000000000008,
0033,
11103030,
11103030,
11103030,
11102010,
11102010,
11102070,
,
8333,
#GOGOSTART
30030110,
30030010,
10110225,
000000000008000000000000300000000000000000000000,
10110222,
00220000,
10101111,
0333,
30030110,
30030010,
10220225,
000000000000000000000008000000000000100000000000,
10110223,
00202026,
000000000000000000000000000008000000000000000000,
33330333,
03900000,
00000000,
8,
#GOGOEND
#END
COURSE:Normal
LEVEL:2
BALLOON:20,8,12
SCOREINIT:1310
SCOREDIFF:590
#START
#SCROLL 0.8
1,
1,
1,
,
1,
1,
1,
500000000000000000000000000000000008000000000000,
30030030,
03003030,
9,
00,
8,
,
1005,
000000000008000000000000100000000000000000000000,
1,
0011,
1,
1015,
000000000000000000000008000000000000000000000000,
11,
1005,
000000000008000000000000100000000000100000000000,
1,
0011,
1,
2225,
000000000000000000000008000000000000000000000000,
0033,
0033,
0033,
0033,
0033,
0033,
0039,
0000,
8,
#GOGOSTART
3003,
3,
10101005,
000000000000000000000000000008000000000000000000,
2022,
22,
1111,
0333,
3003,
3,
10101005,
000000000000000000000008000000000000000000000000,
1,
10001006,
000000000000000000000008000000000000000000000000,
30030003,
0900,
00000000,
8,
#GOGOEND
#END
COURSE:Easy
LEVEL:2
BALLOON:15,6,9
SCOREINIT:1680
SCOREDIFF:1240
#START
#SCROLL 0.8
1,
,
1,
,
1,
1,
1,
500000000000000000000000000008000000000000000000,
3003,
03,
9,
00,
08,
,
1005,
000000000000000000000000000008000000000000000000,
1,
,
1,
1015,
000000000000000000000008000000000000000000000000,
11,
1005,
000000000000000000000000000008000000000000000000,
1,
,
1,
1015,
000000000000000000000008000000000000000000000000,
03,
03,
03,
03,
03,
03,
0039,
0000,
8,
#GOGOSTART
3,
3,
10001005,
000000000000000000000000000008000000000000000000,
11,
1,
600000000000000000000000000000000000000000000008,
,
3,
3,
10001005,
000000000000000000000000000008000000000000000000,
1,
10001006,
000000000000000000000008000000000000000000000000,
30000003,
0900,
00000000,
8,
#GOGOEND
#END