forked from ESE/ESE
310 lines
12 KiB
Plaintext
310 lines
12 KiB
Plaintext
//TJADB Project
|
|
TITLE:D-tecnoLife
|
|
TITLEJA:D-tecnoLife
|
|
SUBTITLE:--UVERworld/BLEACH
|
|
SUBTITLEJA:BLEACH
|
|
BPM:168
|
|
WAVE:D-tecnoLife.ogg
|
|
OFFSET:-1.499
|
|
DEMOSTART:45.769
|
|
|
|
COURSE:Oni
|
|
LEVEL:8
|
|
BALLOON:14
|
|
SCOREINIT:930
|
|
SCOREDIFF:200
|
|
|
|
|
|
#START
|
|
|
|
|
|
000000000000000000000000000000000000000000000000,
|
|
100000000000000000000000000000000000000000000000,
|
|
100000000000000000000000000000000000000000000000,
|
|
100000000000000000000000200000200000000000000000,
|
|
100000000000000000000000200000200000000000000000,
|
|
500000000000000000000000000000000008000000000000,
|
|
300000000000000000000000000000000000000000000000,
|
|
100000200000100000200200100000100000200000200000,
|
|
100000200000100000200200100000100000200000000000,
|
|
100000200000100000200200100000100000200000200000,
|
|
100000200200200000100000200000100000000000100000,
|
|
200000000000000000200000000000000000200000000000,
|
|
000000000000000000000000000000000000000000000000,
|
|
100000000000200000100000000000200000100000000000,
|
|
100000200000000000100000200200200000100000000000,
|
|
100000000000200000100000000000200000100000000000,
|
|
100000200000200200100000200200200000100000000000,
|
|
100000000000200000100000000000200000100000000000,
|
|
100000200000000000100000200200200000100000000000,
|
|
100000000000200000100000000000200000100000000000,
|
|
100000200000200200100000200000200200100000000000,
|
|
100000000200200000100000200200200000100000000000,
|
|
100000200200200000100000200000200200100000000000,
|
|
100000000200200000100000200200200000100000000000,
|
|
100000200200200000100000200200200000100000000000,
|
|
100000000000100000200200100000100000200000000000,
|
|
100000000000100000200200100000100000200000000000,
|
|
100000100000200000000200100200100000200000200200,
|
|
100000100000200000000200100200100000200000100000,
|
|
000000000000000000100000100000200000100000300000,
|
|
000000300000000000300000000000300000000000000000,
|
|
|
|
#GOGOSTART
|
|
100000100000200000100100000200100000200000100100,
|
|
100000100000200000100100000100100000200000100100,
|
|
100000100000200000100100000200100000200000100100,
|
|
100000100000200000000000100000100000200000200200,
|
|
100000100000200000100100000200100000200000200200,
|
|
100000100000200000100000000000200200200000200000,
|
|
000000100000100000200000100000200000200000100000,
|
|
100100100000000000200200200000200000200000000000,
|
|
100000100000200000100100000200100000200000100100,
|
|
100000100000200000100100000100100000200000100100,
|
|
100000100000200000100100000200100000200000100100,
|
|
100000100000200000000000100000100000200000100000,
|
|
000000100000200000100100100000100000200000100000,
|
|
000000100000200000100100100000100000200000000000,
|
|
100000000000000000200200100000000000200000100000,
|
|
000000100100100100100100200000300000000000000000,
|
|
|
|
#GOGOEND
|
|
700000000000000000000000000000000000000000000000,
|
|
000000000000000000000000800000000000000000100000,
|
|
000000100100100000200000000000000000000000100100,
|
|
200000200000000000200200100000200000000000000000,
|
|
100000200000100000200200100000100000200000200000,
|
|
100000200000100000200200100000100000200000100000,
|
|
100000100000000000200000100000000000200000100000,
|
|
000000200200100000200000200200100000200000300000,
|
|
|
|
|
|
#END
|
|
|
|
|
|
COURSE:Hard
|
|
LEVEL:6
|
|
BALLOON:12
|
|
SCOREINIT:1090
|
|
SCOREDIFF:210
|
|
|
|
|
|
#START
|
|
|
|
|
|
|
|
000000000000000000000000000000000000000000000000,
|
|
000000000000000000000000000000000000000000000000,
|
|
100000000000000000000000000000000000000000000000,
|
|
100000000000000000000000000000000000000000000000,
|
|
100000000000000000000000200000000000000000000000,
|
|
100000000000000000000000200000000000000000000000,
|
|
500000000000000000000000000000000008000000000000,
|
|
300000000000000000000000000000000000000000000000,
|
|
100000200000100000200000100000100000200000000000,
|
|
100000100000200000100000200000100000200000000000,
|
|
100000200000100000200000100000100000200000000000,
|
|
100000200000000000200200200000100000000000000000,
|
|
200000000000000000200000000000000000200000000000,
|
|
000000000000000000000000000000000000000000000000,
|
|
100000000000200000100000000000200000100000000000,
|
|
100000200000000000100000200000200000100000000000,
|
|
100000000000200000100000000000200000100000000000,
|
|
100000200000000000100000200000200000100000000000,
|
|
100000000000200000100000000000200000100000000000,
|
|
100000200000000000100000200000200000100000000000,
|
|
100000000000200000100000000000200000100000000000,
|
|
100000200000000000100000200000200000100000000000,
|
|
100000000200200000100000000000100000200000000000,
|
|
100000000200200000100000000000200000200000000000,
|
|
100000000200200000100000000000100000200000000000,
|
|
100000000200200000100000000000200000200000000000,
|
|
100000000000100000200000100000100000200000000000,
|
|
100000000000100000200000100000100000200000000000,
|
|
100000100000200000000000100100100000200000000000,
|
|
100000100000200000000000100100100000200000100000,
|
|
000000000000000000100000100000000000000000300000,
|
|
000000300000000000300000000000300000000000000000,
|
|
|
|
#GOGOSTART
|
|
100000000000200000100000000000100000200000000000,
|
|
100000000000200000100000000000200000200000000000,
|
|
100000000000200000100000000000100000200000100000,
|
|
000000100000200000000000100000100000200000000000,
|
|
100000000000200000100000000000100000200000000000,
|
|
100000000000200000100000000000200200200000200000,
|
|
000000100000100000000000100000000000200000100000,
|
|
000000100000000000200200200000200000200000000000,
|
|
100000100000200000100000000000100000200000000000,
|
|
100000100000200000100000000000200000200000000000,
|
|
100000100000200000100000000000100000200000100000,
|
|
000000100000200000000000100000100000200000000000,
|
|
100000000000200000100000000000100000200000000000,
|
|
100000000000000000000000100000000000100000100100,
|
|
200000000000000000200200100000000000200000100000,
|
|
000000000000000000000000200000300000000000000000,
|
|
|
|
#GOGOEND
|
|
700000000000000000000000000000000000000000000000,
|
|
000000000000000000000000800000000000000000100000,
|
|
000000100000000000200000000000000000000000100000,
|
|
000000200000000000100100100000200000000000000000,
|
|
100000200000100000200000100000100000200000000000,
|
|
100000100000200000200000100000200000100000000000,
|
|
100000100000000000200000100000000000200000200000,
|
|
000000200000100000000000200000100000000000300000,
|
|
|
|
|
|
#END
|
|
|
|
|
|
COURSE:Normal
|
|
LEVEL:5
|
|
BALLOON:10
|
|
SCOREINIT:830
|
|
SCOREDIFF:340
|
|
|
|
|
|
#START
|
|
|
|
|
|
000000000000000000000000000000000000000000000000,
|
|
000000000000000000000000000000000000000000000000,
|
|
100000000000000000000000000000000000000000000000,
|
|
100000000000000000000000000000000000000000000000,
|
|
100000000000000000000000200000000000000000000000,
|
|
100000000000000000000000200000000000000000000000,
|
|
500000000000000000000008000000000000000000000000,
|
|
300000000000000000000000000000000000000000000000,
|
|
100000000000100000000000100000000000200000000000,
|
|
100000100000100000000000100000000000200000000000,
|
|
100000000000100000000000100000000000200000000000,
|
|
100000000000000000000000300000000000000000000000,
|
|
200000000000000000200000000000000000200000000000,
|
|
000000000000000000000000000000000000000000000000,
|
|
100000000000200000100000000000000000100000000000,
|
|
100000000000000000100000000000000000000000000000,
|
|
100000000000200000100000000000000000100000000000,
|
|
100000000000000000100000000000000000000000000000,
|
|
100000000000200000100000000000000000100000000000,
|
|
100000000000000000100000000000000000000000000000,
|
|
100000000000200000100000000000000000100000000000,
|
|
100000000000000000000000000000000000000000000000,
|
|
100000000000100000000000100000000000200000000000,
|
|
100000000000100000000000200000000000000000000000,
|
|
100000000000100000000000100000000000200000000000,
|
|
100000000000100000000000200000000000000000000000,
|
|
100000000000200000000000100000100000200000000000,
|
|
100000000000200000000000100000100000200000000000,
|
|
100000000000000000000000100100100000000000000000,
|
|
100000000000000000000000100100100000000000100000,
|
|
000000000000000000100000100000000000000000300000,
|
|
000000300000000000300000000000300000000000000000,
|
|
|
|
#GOGOSTART
|
|
100000000000100000100000000000000000100000000000,
|
|
100000000000100000100000000000000000000000000000,
|
|
100000000000100000000000100000000000100000000000,
|
|
100000000000000000000000200000000000000000000000,
|
|
100000000000100000100000000000000000100000000000,
|
|
100000000000100000100000000000000000000000000000,
|
|
100000000000100000000000100000000000100000000000,
|
|
100000000000000000000000200000000000000000000000,
|
|
100000000000100000100000000000000000100000000000,
|
|
100000000000100000100000000000000000000000000000,
|
|
100000000000100000000000100000000000100000000000,
|
|
100000000000000000000000200000200000000000000000,
|
|
100000100000000000000000200000200000000000000000,
|
|
100000100000000000000000000000000000000000000000,
|
|
300000000000000000100100100000000000000000000000,
|
|
200000000000000000000000300000300000000000000000,
|
|
|
|
#GOGOEND
|
|
700000000000000000000000000000000000000000000000,
|
|
000000000000000000000000800000000000000000000000,
|
|
100000000000200000000000000000000000200000000000,
|
|
100000000000200000000000000000000000200000000000,
|
|
100000000000100000000000100000000000200000000000,
|
|
100000100000100000000000100000000000200000000000,
|
|
100000000000000000000000100000000000200000000000,
|
|
000000100000100000000000100000100000000000300000,
|
|
|
|
|
|
#END
|
|
|
|
|
|
COURSE:Easy
|
|
LEVEL:4
|
|
BALLOON:6
|
|
SCOREINIT:770
|
|
SCOREDIFF:300
|
|
|
|
|
|
#START
|
|
|
|
|
|
000000000000000000000000000000000000000000000000,
|
|
000000000000000000000000000000000000000000000000,
|
|
100000000000000000000000000000000000000000000000,
|
|
100000000000000000000000000000000000000000000000,
|
|
100000000000000000000000200000000000000000000000,
|
|
100000000000000000000000200000000000000000000000,
|
|
500000000000000000000008000000000000000000000000,
|
|
300000000000000000000000000000000000000000000000,
|
|
100000000000100000000000100000000000000000000000,
|
|
100000000000100000000000200000000000000000000000,
|
|
100000000000100000000000100000000000000000000000,
|
|
100000000000000000000000300000000000000000000000,
|
|
000000000000000000000000000000000000000000000000,
|
|
000000000000000000000000000000000000000000000000,
|
|
100000000000000000100000000000000000100000000000,
|
|
100000000000000000100000000000000000000000000000,
|
|
100000000000000000100000000000000000100000000000,
|
|
100000000000000000100000000000000000000000000000,
|
|
100000000000000000100000000000000000100000000000,
|
|
100000000000000000100000000000000000000000000000,
|
|
100000000000000000100000000000000000100000000000,
|
|
100000000000000000000000000000000000000000000000,
|
|
100000000000100000100000000000000000000000000000,
|
|
200000000000000000200000000000000000000000000000,
|
|
100000000000100000100000000000000000000000000000,
|
|
200000000000000000200000000000000000000000000000,
|
|
100000000000100000000000100000000000000000000000,
|
|
200000000000200000000000200000000000000000000000,
|
|
100000000000000000000000100000100000000000000000,
|
|
100000000000000000000000100000100000000000100000,
|
|
000000000000000000000000000000000000000000300000,
|
|
000000300000000000300000000000300000000000000000,
|
|
|
|
#GOGOSTART
|
|
100000000000000000000000200000000000000000000000,
|
|
100000000000000000000000100000000000200000000000,
|
|
100000000000000000000000200000000000000000000000,
|
|
100000000000100000000000100000000000000000000000,
|
|
100000000000000000000000100000000000200000000000,
|
|
100000000000000000000000200000000000000000000000,
|
|
100000000000100000000000100000000000100000000000,
|
|
100000000000000000000000100000000000100000000000,
|
|
100000000000000000000000100000000000200000000000,
|
|
100000000000000000000000200000000000000000000000,
|
|
100000000000100000000000100000000000100000000000,
|
|
100000000000000000000000000000000000000000000000,
|
|
100000100000000000000000000000000000000000000000,
|
|
100000100000000000000000000000000000000000000000,
|
|
100000000000000000000000300000000000000000000000,
|
|
200000000000000000000000300000300000000000000000,
|
|
|
|
#GOGOEND
|
|
700000000000000000000000000000000000000000000000,
|
|
000000000000000000800000000000000000000000000000,
|
|
000000000000200000000000000000000000200000000000,
|
|
000000000000200000000000000000000000200000000000,
|
|
100000000000100000000000100000000000000000000000,
|
|
100000000000100000000000200000000000000000000000,
|
|
100000000000000000000000100000000000100000000000,
|
|
000000000000000000000000000000000000000000300000,
|
|
|
|
|
|
#END
|
|
|