forked from ESE/ESE
246 lines
3.5 KiB
Plaintext
246 lines
3.5 KiB
Plaintext
//TJADB Project
|
|
TITLE:EXCITE
|
|
TITLEJA:EXCITE
|
|
SUBTITLE:--Daichi Miura/Kamen Rider Ex-Aid
|
|
SUBTITLEJA:「仮面ライダーエグゼイド」より
|
|
BPM:151
|
|
WAVE:EXCITE.ogg
|
|
OFFSET:-2.382
|
|
DEMOSTART:42.117
|
|
|
|
COURSE:Oni
|
|
LEVEL:7
|
|
BALLOON:14
|
|
SCOREINIT:850
|
|
SCOREDIFF:210
|
|
|
|
|
|
#START
|
|
|
|
|
|
7008,
|
|
1001001001001020,
|
|
1001001001001020,
|
|
1001001001002222,
|
|
1001102001102020,
|
|
1001102001102020,
|
|
100100100100101010101010,
|
|
500000000000000000000000000000000000000000000008,
|
|
0000101120000010,
|
|
1110101010001000,
|
|
0000101120000010,
|
|
2202202011101020,
|
|
1011101110115000,
|
|
000000000000000008000000000000000000100100100200,
|
|
1011101011105000,
|
|
000000000000000008000000100000200000100100200200,
|
|
1010111020200011,
|
|
1010101122102030,
|
|
0030002210112020,
|
|
3444,
|
|
0010111020200011,
|
|
1010102211202030,
|
|
0030201011011020,
|
|
600000000000000000000000000000000008000000000000,
|
|
1011200010001000,//25
|
|
|
|
#GOGOSTART
|
|
3011200030112000,
|
|
1011201020112000,
|
|
3011200030112000,
|
|
2011201020112000,
|
|
1101201011012010,
|
|
1101201110102000,
|
|
1101201011012010,
|
|
122122100200,
|
|
1000400000101110,
|
|
500000000000000000000000000000000008000000000000,
|
|
1000400000101110,
|
|
500000000000000000000000000000000008000000000000,
|
|
3011200030112000,
|
|
1120102011202000,
|
|
3011200030112000,
|
|
1120221011202220,
|
|
3001101011202010,
|
|
4001102022102010,
|
|
3003003003001111,
|
|
2,//45
|
|
|
|
#GOGOEND
|
|
|
|
|
|
#END
|
|
|
|
|
|
COURSE:Hard
|
|
LEVEL:5
|
|
BALLOON:10
|
|
SCOREINIT:790
|
|
SCOREDIFF:230
|
|
|
|
#START
|
|
7008,
|
|
10010000,
|
|
10010000,
|
|
10010000,
|
|
1001001001002020,
|
|
1001001001002020,
|
|
1001001001002020,
|
|
600000000000000000000000000000000000000000000008,
|
|
00112001,
|
|
10111010,
|
|
00112002,
|
|
20221010,
|
|
2225,
|
|
000000000000000008000000000000000000100000100000,
|
|
2225,
|
|
000000000000000008000000000000000000000000000000,
|
|
01102201,
|
|
01102223,
|
|
03000000,
|
|
3444,
|
|
01102201,
|
|
01102223,
|
|
03000006,
|
|
000000000000000000000000000000000008000000000000,
|
|
33400000,//25
|
|
|
|
#GOGOSTART
|
|
33403340,
|
|
1110200011102000,
|
|
33403340,
|
|
1110200011102000,
|
|
1000201011102000,
|
|
10220200,
|
|
1000201011102000,
|
|
4444,
|
|
10400110,
|
|
1110201110102000,
|
|
10400110,
|
|
2220201110102000,
|
|
33403340,
|
|
1110200011102000,
|
|
33403340,
|
|
2220200022202000,
|
|
30011221,
|
|
30022112,
|
|
40011221,
|
|
3,//45
|
|
|
|
#GOGOEND
|
|
,
|
|
#END
|
|
|
|
COURSE:Normal
|
|
LEVEL:3
|
|
BALLOON:3,7
|
|
|
|
#START
|
|
500000000000000000000000000000000000000008000000,
|
|
,
|
|
1,
|
|
1,
|
|
11,
|
|
11,
|
|
1111,
|
|
600000000000000000000000000000000000000000000008,
|
|
0110,
|
|
1011,
|
|
0110,
|
|
1011,
|
|
1115,
|
|
000000000000000008000000000000000000000000000000,
|
|
1115,
|
|
000000000000000008000000000000000000000000000000,
|
|
12,
|
|
10102003,
|
|
04000000,
|
|
4444,
|
|
12,
|
|
10102003,
|
|
03000006,
|
|
000000000000000000000000000000000008000000000000,
|
|
78,//25
|
|
|
|
#GOGOSTART
|
|
3333,
|
|
1212,
|
|
3333,
|
|
1212,
|
|
10011000,
|
|
20220200,
|
|
10011000,
|
|
4444,
|
|
10400110,
|
|
500000000000000000000000000000000008000000000000,
|
|
10400110,
|
|
500000000000000000000000000000000008000000000000,
|
|
3333,
|
|
1212,
|
|
3333,
|
|
2222,
|
|
300000000000000000500000000000000008000000000000,
|
|
400000000000000000600000000000000008000000000000,
|
|
30090000,
|
|
09,//45
|
|
|
|
#GOGOEND
|
|
8,
|
|
#END
|
|
|
|
COURSE:Easy
|
|
LEVEL:2
|
|
BALLOON:7,7,5
|
|
|
|
#START
|
|
500000000000000000000000000000000000000008000000,
|
|
,
|
|
1,
|
|
1,
|
|
3,
|
|
3,
|
|
33,
|
|
600000000000000000000000000008000000000000000000,
|
|
1,
|
|
11,
|
|
1,
|
|
11,
|
|
1115,
|
|
000000000000000008000000000000000000000000000000,
|
|
1115,
|
|
000000000000000008000000000000000000000000000000,
|
|
1,
|
|
20000003,
|
|
03000000,
|
|
33,
|
|
2,
|
|
20000003,
|
|
03000006,
|
|
000000000000000000000000000000000008000000000000,
|
|
,//25
|
|
|
|
#GOGOSTART
|
|
33,
|
|
1110,
|
|
33,
|
|
1110,
|
|
11,
|
|
2,
|
|
11,
|
|
3333,
|
|
00000700,
|
|
0008,
|
|
00000700,
|
|
0008,
|
|
33,
|
|
1110,
|
|
33,
|
|
1110,
|
|
3,
|
|
3,
|
|
30090000,
|
|
09,//45
|
|
|
|
#GOGOEND
|
|
8,
|
|
#END |