Files
2023-01-17 00:45:18 -05:00

335 lines
12 KiB
Plaintext

//TJADB Project
TITLE:FUTURE FISH
TITLEJA:FUTURE FISH
SUBTITLE:--STYLE FIVE/Free! -Eternal Summer-
SUBTITLEJA:「Free! -Eternal Summer-」より
BPM:163
WAVE:FUTURE FISH.ogg
OFFSET:-1.906
DEMOSTART:51.190
COURSE:Oni
LEVEL:6
BALLOON:8,8,12,12,8
SCOREINIT:680
SCOREDIFF:185
#START
#GOGOSTART
100000000000200000000000100100100000200000300000,
000000300000000000300000000000300000400000000000,
100000000000200000000000100100100000200000100000,
000000700000000000000000000000000000800000000000,
100000000000200000000000100100100000200000300000,
000000300000000000300000000000300000400000000000,
100000000000200000000000100100100000200000100000,
000000700000000000000000000000000000800000000000,
#GOGOEND
100000000000200000100000100100100000200000000000,
100000000000200000100000100100100000200000000000,
100000000000200000100000100100100000200000000000,
100000000000200000100000100100100000200000100000,
100000000000200000100000100100100000200000000000,
100000000000200000100000100100100000200000000000,
100000000000200000100000100100100000200000100000,
300000000000300000000000400000000000400000000000,
300000300000000000400000400000000000300000300000,
000000300000300000400000000000000000100000000000,
100000100100200000200000100000100100200000200000,
200000200200100000100000200000200200100000100000,
400000400000000000300000300000000000400000400000,
000000300000300000400000000000000000100000000000,
100000100100200000200000100000100100200000200000,
000000200200200000200000000000400000300000000000,
300000000000400000000000000000400000000000700000,
000000000000000000000000000000000000800000000000,
100000100000200200200000100000100000200200200000,
100000100000200200200000000000400000300000000000,
300000000000400000000000000000400000000000700000,
000000000000000000000000000000000000800000000000,
200000200000100100100000200000200000100100100000,
200000200000100100100000000000400000400000000000,
300000000000000000300000000000000000400000000000,
300000000000000000000000000000000000000000000000,
#GOGOSTART
100000000000200000100000100100100000200200200000,
100000000000200000100000100100100000200200200000,
100000000000200000100000100100100000200200200000,
100000000000200000100000100100200000000000200000,
000000200000200200100000200000000000100000200200,
100000200000100000100100100000400000400000000000,
100100100000100000200000100100100000100000200000,
000000200200200000200000100000100100200000100000,
000000100000200000100000100100100000200200200000,
100000000000200000100000100100100000200200200000,
100000000000200000100000100100100000200200200000,
100000000000200000100000100100200000000000200000,
000000200000200200100000200000000000100000200200,
100000200000100000100100100000400000400000000000,
100100100000100000200000100100100000500000000000,
#GOGOEND
000000000000000008000000000000000000000000000000,
#GOGOSTART
100000000000200000100000100100100000200000300000,
000000300000000000300000000000300000400000000000,
100000000000200000100000100100100000200000100000,
000000700000000000000000000000000000800000000000,
100000000000200000100000100100100000200000300000,
000000300000000000300000000000300000400000000000,
100000000000200000100000100100100000200000100000,
000000600000000000000000000000000000000000000000,
000000000008000000000000000000000000000000000000,
#GOGOEND
#END
COURSE:Hard
LEVEL:5
BALLOON:6,6,10,10,6,10
SCOREINIT:690
SCOREDIFF:200
#START
#GOGOSTART
100000000000100000000000100000100000100000300000,
000000300000000000300000000000400000400000000000,
100000000000100000000000100000100000100000100000,
000000700000000000000000000000800000000000000000,
100000000000100000000000100000100000100000300000,
000000300000000000300000000000400000400000000000,
100000000000100000000000100000100000100000100000,
000000700000000000000000000000800000000000000000,
#GOGOEND
100000000000100000100000000000100000100000000000,
100000000000100000100000000000100000100000000000,
100000000000100000100000000000100000100000000000,
100000000000100000100000000000100000100000100000,
100000000000200000100000000000100000200000000000,
100000000000200000100000000000100000200000000000,
100000000000200000100000000000100000200000000000,
300000000000300000000000400000000000400000000000,
300000300000000000400000400000000000300000300000,
000000300000300000400000000000000000100000000000,
100000100000200000000000100000100000200000000000,
200000200000100000000000200000200000100000100000,
400000400000000000300000300000000000400000400000,
000000300000300000400000000000000000100000000000,
100000100000200000000000100000100000200000200000,
000000200000200000200000000000000000000000000000,
300000000000400000000000000000400000000000700000,
000000000000000000000000000000800000000000000000,
100000100000200000200000100000100000200000200000,
100000100000200000200000000000000000000000000000,
300000000000400000000000000000400000000000700000,
000000000000000000000000000000800000000000000000,
100000100000200000200000000000100000100000200000,
000000200000200000000000000000100000100000000000,
300000000000000000300000000000000000400000000000,
300000000000000000000000000000000000000000000000,
#GOGOSTART
100000000000200000000000100000100000200000200000,
100000000000200000000000100000100000200000200000,
100000000000200000000000100000100000200000200000,
100000000000100000200000000000200000000000200000,
000000000000200000100000200000000000000000100000,
200000000000200000100000100000400000400000000000,
100000000000100000200000000000200000100000200000,
000000100000200000000000100000100000200000100000,
000000100000200000000000100100100000200200200000,
100000000000200000000000100100100000200200200000,
100000000000200000000000100100100000200200200000,
100000000000100000200000000000200000000000200000,
000000200200200000100000200000000000000000100000,
200000000000200200200000100000400000400000000000,
100000000000100000200000000000200000500000000000,
#GOGOEND
000000000000000800000000000000000000000000000000,
#GOGOSTART
100000000000100000000000100000100000100000300000,
000000300000000000300000000000400000400000000000,
100000000000100000000000100000100000100000100000,
000000700000000000000000000000800000000000000000,
100000000000100000000000100000100000100000300000,
000000300000000000300000000000400000400000000000,
100000000000100000000000100000100000100000100000,
000000900000000000000000000000000000000000000008,
#GOGOEND
#END
COURSE:Normal
LEVEL:5
BALLOON:5,5,7,7,5,8
SCOREINIT:770
SCOREDIFF:260
#START
#GOGOSTART
100000000000100000000000100000000000000000300000,
000000300000000000300000000000300000000000000000,
100000000000100000000000100000000000100000100000,
000000700000000000000000000000800000000000000000,
100000000000100000000000100000000000000000300000,
000000300000000000300000000000300000000000000000,
100000000000100000000000100000000000100000100000,
000000700000000000000000000000800000000000000000,
#GOGOEND
100000000000100000100000000000000000000000000000,
100000000000100000100000000000000000000000000000,
100000000000100000100000000000000000000000000000,
100000000000100000000000100000000000000000000000,
100000000000200000200000000000000000000000000000,
100000000000200000200000000000000000000000000000,
100000000000200000200000000000000000000000000000,
200000000000200000000000200000000000200000000000,
300000300000000000300000300000000000300000300000,
000000300000300000300000000000000000000000000000,
100000000000200000000000100000000000200000000000,
100000000000100000000000100000000000000000000000,
400000400000000000400000400000000000400000400000,
000000400000400000400000000000000000000000000000,
100000000000100000000000100000000000100000100000,
000000100000100000100000000000000000000000000000,
300000000000300000000000000000300000000000700000,
000000000000000000000000000000800000000000000000,
100000000000100000000000100000000000100000000000,
100000000000100000100000000000000000000000000000,
400000000000400000000000000000400000000000700000,
000000000000000000000000000000800000000000000000,
100000000000100000100000000000000000000000100000,
000000100000100000000000000000100000100000000000,
300000000000000000300000000000000000300000000000,
300000000000000000000000000000000000000000000000,
#GOGOSTART
100000000000100000000000100000100000100000000000,
100000000000100000000000100000000000000000000000,
100000000000100000000000100000100000100000000000,
100000000000100000000000100000000000000000000000,
200000000000200000000000200000000000000000100000,
100000000000100000100000100000000000000000000000,
100000000000100000000000200000000000200000000000,
100000000000000000000000100000000000100000100000,
000000000000100000000000100000100000100000000000,
100000000000100000000000100000000000000000000000,
100000000000100000000000100000100000100000000000,
100000000000100000000000100000000000000000000000,
200000000000200000000000200000000000000000100000,
100000000000100000100000100000000000000000000000,
100000000000100000100000000000100000500000000000,
#GOGOEND
000000000000800000000000000000000000000000000000,
#GOGOSTART
100000000000100000000000100000000000000000300000,
000000300000000000300000000000300000000000000000,
100000000000100000000000100000000000100000100000,
000000700000000000000000000000800000000000000000,
100000000000100000000000100000000000000000300000,
000000300000000000300000000000300000000000000000,
100000000000100000000000100000000000100000100000,
000000900000000000000000000000000000000000000008,
#GOGOEND
#END
COURSE:Easy
LEVEL:3
BALLOON:4,4,6,6,4,6
SCOREINIT:620
SCOREDIFF:233
#START
#GOGOSTART
100000000000000000000000100000000000000000300000,
000000300000000000300000000000300000000000000000,
100000000000000000000000100000000000000000100000,
000000700000000000000000000000800000000000000000,
100000000000000000000000100000000000000000300000,
000000300000000000300000000000300000000000000000,
100000000000000000000000100000000000000000100000,
000000700000000000000000000000800000000000000000,
#GOGOEND
100000000000100000000000000000000000000000000000,
100000000000100000000000000000000000000000000000,
100000000000100000000000000000000000000000000000,
100000000000100000000000100000000000000000000000,
200000000000200000000000000000000000000000000000,
200000000000200000000000000000000000000000000000,
200000000000200000000000000000000000000000000000,
100000000000100000000000100000000000100000000000,
300000000000000000300000000000000000300000000000,
000000300000000000000000000000000000000000000000,
100000000000100000000000100000000000000000000000,
200000000000200000000000200000000000000000000000,
400000000000000000400000000000000000400000000000,
000000400000000000000000000000000000000000000000,
100000000000100000000000100000000000000000000000,
200000000000200000000000200000000000000000000000,
300000000000300000000000000000300000000000700000,
000000000000000000000000000000800000000000000000,
100000000000100000000000100000000000000000000000,
100000000000100000000000100000000000000000000000,
400000000000400000000000000000400000000000700000,
000000000000000000000000000000800000000000000000,
100000000000100000000000000000000000000000100000,
000000000000100000000000000000000000000000000000,
300000000000000000300000000000000000300000000000,
300000000000000000000000000000000000000000000000,
#GOGOSTART
100000000000000000000000100000000000000000000000,
100000000000100000000000100000000000000000000000,
100000000000000000000000100000000000000000000000,
200000000000200000000000200000000000000000000000,
100000000000000000000000200000000000000000000000,
100000000000000000000000200000000000000000000000,
100000000000100000000000100000000000100000000000,
100000000000000000000000200000000000200000000000,
100000000000000000000000100000000000000000000000,
100000000000100000000000100000000000000000000000,
100000000000000000000000100000000000000000000000,
200000000000200000000000200000000000000000000000,
100000000000000000000000200000000000000000000000,
100000000000000000000000200000000000000000000000,
100000000000100000000000100000000000500000000000,
#GOGOEND
000000000000800000000000000000000000000000000000,
#GOGOSTART
100000000000000000000000100000000000000000300000,
000000300000000000300000000000300000000000000000,
100000000000000000000000100000000000000000100000,
000000700000000000000000000000800000000000000000,
100000000000000000000000100000000000000000300000,
000000300000000000300000000000300000000000000000,
100000000000000000000000100000000000000000100000,
000000900000000000000000000000000000000000000008,
#GOGOEND
#END