forked from ESE/ESE
309 lines
3.6 KiB
Plaintext
309 lines
3.6 KiB
Plaintext
//TJADB Project
|
|
TITLE:GEED no Akashi
|
|
TITLEJA:GEEDの証
|
|
SUBTITLE:--Tatsuomi Hamada & Voyager/Ultraman Geed
|
|
SUBTITLEJA:『ウルトラマンジード』より
|
|
BPM:158
|
|
WAVE:GEED no Akashi.ogg
|
|
OFFSET:-1.861
|
|
DEMOSTART:45.460
|
|
|
|
COURSE:Oni
|
|
LEVEL:7
|
|
BALLOON:6,7
|
|
SCOREINIT:690
|
|
SCOREDIFF:160
|
|
|
|
|
|
#START
|
|
|
|
|
|
1000102000222020,
|
|
1000102000222020,
|
|
1000102000222000,
|
|
40430400,
|
|
2000201000222010,
|
|
2000201000222030,
|
|
40430021,
|
|
2011102011102000,
|
|
2011102010200020,
|
|
1011201020100000,
|
|
2011102010200020,
|
|
1011201020102022,
|
|
1000200000111011,
|
|
2000201000102220,
|
|
10210120,
|
|
1011202010201022,
|
|
1000200000111011,
|
|
2000201000102022,
|
|
10210120,
|
|
1020102210201022,
|
|
1010200010102022,
|
|
1010201110102000,
|
|
1110200022201050,
|
|
000000000000000000000008000000100000200000000000,
|
|
1001102000200020,
|
|
1001102000201122,
|
|
1010200022112050,
|
|
000000000000000000000000000000000000000000000008,
|
|
0000000000112000,//29
|
|
|
|
#GOGOSTART
|
|
1011101110112010,
|
|
1011101110222000,
|
|
2220222022111050,
|
|
000000000000000000000008000000200000200200200000,
|
|
1011101110112010,
|
|
1011101110112020,
|
|
1111102070000080,
|
|
1020101120102000,
|
|
1011101110112010,
|
|
1011101110222000,
|
|
2220222022111020,
|
|
0010200011112000,
|
|
12070000,
|
|
8000200022112000,
|
|
12020215,
|
|
000000000000000000000008000000000000100000100100,
|
|
1011101110112010,
|
|
1011101110222020,
|
|
1011101110112020,
|
|
0000101011112000,//49
|
|
|
|
#GOGOEND
|
|
3,
|
|
0000000000001011,//51
|
|
|
|
#GOGOSTART
|
|
1011101110112010,
|
|
1011101110222020,
|
|
1011101110112020,
|
|
0000101011112000,
|
|
30440000,//56
|
|
|
|
#GOGOEND
|
|
|
|
|
|
#END
|
|
|
|
|
|
COURSE:Hard
|
|
LEVEL:4
|
|
BALLOON:26,6,18
|
|
SCOREINIT:870
|
|
SCOREDIFF:260
|
|
|
|
#START
|
|
30330000,
|
|
40440000,
|
|
30330000,
|
|
30330400,
|
|
30330000,
|
|
40440000,
|
|
6,
|
|
000000000000000000000000000000000008000000000000,
|
|
10101101,
|
|
10102200,
|
|
10101101,
|
|
10102200,
|
|
10200110,
|
|
10200110,
|
|
10220000,
|
|
,
|
|
10200220,
|
|
10200220,
|
|
10220000,
|
|
,
|
|
10200120,
|
|
10200120,
|
|
10201025,
|
|
000000000000000000000008000000000000000000000000,
|
|
30220000,
|
|
30220022,
|
|
9,
|
|
09,
|
|
80000011,//29
|
|
|
|
#GOGOSTART
|
|
10201101,
|
|
00200110,
|
|
10201107,
|
|
00008110,
|
|
10201101,
|
|
00200111,
|
|
7,
|
|
00008011,
|
|
10201101,
|
|
00200110,
|
|
10201102,
|
|
0212,
|
|
33040000,
|
|
0212,
|
|
33040036,
|
|
000000000000000000000008000000000000100000100000,
|
|
10111011,
|
|
00201011,
|
|
10111022,
|
|
00303330,//49
|
|
|
|
#GOGOEND
|
|
3,
|
|
00000011,//51
|
|
|
|
#GOGOSTART
|
|
10111011,
|
|
00201011,
|
|
10111022,
|
|
00303330,
|
|
30440000,//56
|
|
|
|
#GOGOEND
|
|
,
|
|
,
|
|
#END
|
|
|
|
COURSE:Normal
|
|
LEVEL:3
|
|
BALLOON:16,18,14
|
|
|
|
#START
|
|
30030000,
|
|
30030000,
|
|
30030000,
|
|
600000000000000000000000000008000000000000000000,
|
|
30030000,
|
|
40040000,
|
|
7,
|
|
00000800,
|
|
11,
|
|
1110,
|
|
11,
|
|
1110,
|
|
1100,
|
|
1100,
|
|
1100,
|
|
,
|
|
2200,
|
|
2200,
|
|
2200,
|
|
,
|
|
1100,
|
|
1100,
|
|
10002005,
|
|
000000000000000000000008000000000000000000000000,
|
|
30030000,
|
|
30030000,
|
|
9,
|
|
09,
|
|
8,//29
|
|
|
|
#GOGOSTART
|
|
10001001,
|
|
,
|
|
10101105,
|
|
000000000000000000000008000000000000000000000000,
|
|
10001001,
|
|
,
|
|
7,
|
|
08,
|
|
10001001,
|
|
,
|
|
10101101,
|
|
0333,
|
|
3,
|
|
0444,
|
|
6,
|
|
000000000000000000000008000000000000000000000000,
|
|
10101011,
|
|
,
|
|
10101022,
|
|
0333,//49
|
|
|
|
#GOGOEND
|
|
3,
|
|
,//51
|
|
|
|
#GOGOSTART
|
|
10101011,
|
|
,
|
|
10101022,
|
|
0333,
|
|
3,//56
|
|
|
|
#GOGOEND
|
|
,
|
|
,
|
|
#END
|
|
|
|
COURSE:Easy
|
|
LEVEL:3
|
|
BALLOON:11,14,10
|
|
|
|
#START
|
|
3,
|
|
3,
|
|
3,
|
|
600000000000000000000000000008000000000000000000,
|
|
3,
|
|
3,
|
|
7,
|
|
00000800,
|
|
11,
|
|
1,
|
|
11,
|
|
1,
|
|
1,
|
|
11,
|
|
1,
|
|
,
|
|
2,
|
|
22,
|
|
2,
|
|
,
|
|
1,
|
|
1,
|
|
10001005,
|
|
000000000000000000000008000000000000000000000000,
|
|
3,
|
|
3,
|
|
9,
|
|
09,
|
|
8,//29
|
|
|
|
#GOGOSTART
|
|
10001001,
|
|
,
|
|
10101005,
|
|
000000000000000000000008000000000000000000000000,
|
|
10001001,
|
|
,
|
|
7,
|
|
08,
|
|
10001001,
|
|
,
|
|
10101005,
|
|
000000000000000000000008000000000000000000000000,
|
|
3,
|
|
,
|
|
6,
|
|
000000000000000000000008000000000000000000000000,
|
|
1011,
|
|
,
|
|
1011,
|
|
,//49
|
|
|
|
#GOGOEND
|
|
3,
|
|
,//51
|
|
|
|
#GOGOSTART
|
|
1011,
|
|
,
|
|
1011,
|
|
,
|
|
3,//56
|
|
|
|
#GOGOEND
|
|
,
|
|
,
|
|
#END |