forked from ESE/ESE
263 lines
10 KiB
Plaintext
263 lines
10 KiB
Plaintext
//TJADB Project
|
|
TITLE:GO‽
|
|
TITLEJA:FIXME
|
|
SUBTITLE:--FLOW/NARUTO
|
|
BPM:134
|
|
WAVE:GO!!!.ogg
|
|
OFFSET:-1.867
|
|
DEMOSTART:8.137
|
|
|
|
COURSE:Oni
|
|
LEVEL:8
|
|
|
|
|
|
#START
|
|
|
|
|
|
300000000000100000000000100100000000100000000000,
|
|
100000000000100000000000100100000000100000000000,
|
|
100000000000100000000000100100000000100000000000,
|
|
300000000000000000000000100000000000100000000000,
|
|
100000100100200000100100200100100000200000200000,
|
|
100000100000200000100100200100100000200200200000,
|
|
100000100000200000100100200100100000200000200200,
|
|
100000100000200000100100200100100000200200200000,
|
|
100000100100200000100100200100100000200000200200,
|
|
100000100000200000100100200100100000200200200000,
|
|
100000200000100000200100000100200000100000200000,
|
|
100100200000100100200100000100200000100100200000,
|
|
100000100100000000100000100000000000300000000000,
|
|
100000100100100100100000300000300000300000300000,
|
|
100000100100000000100000100000000000300000000000,
|
|
000000200000000000200000200000000000200000000000,
|
|
100000000000200000100000000000100000200000000000,
|
|
100000100000200000100100000000100000200000000000,
|
|
100000000000200000000000100000100000200000000000,
|
|
100000100000100000100100000000200000200000000000,
|
|
100000000000200000000000100000100000200000000000,
|
|
100000100000200000100100000000100000200000000000,
|
|
100000000000200000000000100000100000200000000000,
|
|
100000100000100000100000100000100100100100100000,
|
|
100000200000100100200000100000200100000100200000,
|
|
100000200000100100200000100100200100000100200000,
|
|
100000200000100100200000100100200100000100200000,
|
|
100100200000100000400000000000400000000000000000,
|
|
100000200000100100200000100000200100000100200000,
|
|
100000200000100100200000100100200100000100200000,
|
|
100000200000100100200000100100200100000100200000,
|
|
100000100100100100100000300000000000300000000000,
|
|
100000100100200000100100200100100000200000200000,
|
|
100000100000200000100100200100100000200200200000,
|
|
100000100000200000100100200100100000200000200200,
|
|
100000100000200000100100200100100000200200200000,
|
|
100000100100200000100100200100100000200000200200,
|
|
100000100000200000100100200100100000200200200000,
|
|
100000200000100000200100000100200000100000200000,
|
|
100100200000100100200100100100200100100100200000,
|
|
100000100100000000100000100000000000300000000000,
|
|
100000100100100100100000300000300000300000300000,
|
|
100000100100000000100000100000000000300000000000,
|
|
100000100000100100100100100000300000300000300000,
|
|
100000100100000000100000100000000000300000000000,
|
|
100000100100000100100000300000300000300000300000,
|
|
100000100100000000100000100000000000300000000000,
|
|
100000100100100100100000300000300000300000300000,
|
|
300000000000000000200000200000000000200000000000,
|
|
300000000000000000000000000000000000000000000000,
|
|
|
|
|
|
#END
|
|
|
|
|
|
COURSE:Hard
|
|
LEVEL:4
|
|
SCOREINIT:850
|
|
SCOREDIFF:210
|
|
|
|
|
|
#START
|
|
|
|
|
|
300000000000000000000000000000000000000000000000,
|
|
300000000000000000000000000000000000000000000000,
|
|
300000000000000000000000000000000000000000000000,
|
|
300000000000000000000000100000000000100000000000,
|
|
100000000000100000000100000000100000000000200000,
|
|
000000200000200000200200000000200000200000200000,
|
|
100000000000100000000100000000100000000000200000,
|
|
000000200000200000200200000000200000200000200000,
|
|
100000000000100000000100000000100000000000200000,
|
|
000000200000200000200200000000200000200000200000,
|
|
100000000000100000100000000000100000100000000000,
|
|
100000000000100000000000100000000000100000000000,
|
|
100000100000000000100000100000000000300000000000,
|
|
100000100000100000000000300000300000300000000000,
|
|
100000100000000000100000100000000000300000000000,
|
|
000000000000000000000000200000000200000000200000,
|
|
100000000000200000000000100000100000100000000000,
|
|
100000100000100000100100000000000000000000000000,
|
|
100000000000200000000000100000100000100000000000,
|
|
100000100000100000100100000000000000000000000000,
|
|
100000000000200000000000100000100000100000000000,
|
|
100000000000200000000000100000100000100000000000,
|
|
100000000000200000000000100000100000100000000000,
|
|
100000100000100000100000100000000000400000000000,
|
|
100000200000100000200000100000200000100000200000,
|
|
100000200000100000200000100200000100000000200000,
|
|
100000200000100000200000100000200000100000200000,
|
|
500000000000000000000000000000008000000000000000,
|
|
100000200000100000200000100000200000100000200000,
|
|
100000200000100000200000100200000100000000000000,
|
|
100000000000100000000000100000000000100000000000,
|
|
300000000000000000000000300000000000300000000000,
|
|
100000000000100000000100000000100000000000200000,
|
|
000000200000200000200200000000200000200000200000,
|
|
100000000000100000000100000000100000000000200000,
|
|
000000200000200000200200000000200000200000200000,
|
|
100000000000100000000100000000100000000000200000,
|
|
000000200000200000200200000000200000200000200000,
|
|
100000000000100000100000000000100000100000000000,
|
|
100000000000100000000000100000000000100000000000,
|
|
100000100000000000100000100000000000300000000000,
|
|
100000100000100000000000300000300000300000000000,
|
|
100000100000000000100000100000000000300000000000,
|
|
100000100000100000000000300000300000300000000000,
|
|
100000100000000000100000100000000000300000000000,
|
|
100000100000100000000000300000300000300000000000,
|
|
100000100000000000100000100000000000300000000000,
|
|
100000100000100000000000300000300000300000000000,
|
|
300000000000000000000000200000000200000000200000,
|
|
300000000000000000000000000000000000000000000000,
|
|
|
|
|
|
#END
|
|
|
|
|
|
COURSE:Normal
|
|
LEVEL:4
|
|
SCOREINIT:920
|
|
SCOREDIFF:250
|
|
|
|
|
|
#START
|
|
|
|
|
|
300000000000000000000000000000000000000000000000,
|
|
300000000000000000000000000000000000000000000000,
|
|
300000000000000000000000000000000000000000000000,
|
|
300000000000000000000000000000000000000000000000,
|
|
100000000000100000000100000000100000000000000000,
|
|
200000000000200000200000000000200000200000000000,
|
|
100000000000100000000100000000100000000000000000,
|
|
200000000000200000200000000000200000200000000000,
|
|
100000000000100000000100000000100000000000000000,
|
|
200000000000200000200000000000200000200000000000,
|
|
100000000000100000100000000000100000100000000000,
|
|
100000000000000000000000100000000000000000000000,
|
|
100000100000000000100000100000000000300000000000,
|
|
100000100000000000100000100000000000200000000000,
|
|
100000100000000000100000100000000000300000000000,
|
|
100000000000000000000000100000000000000000000000,
|
|
100000000000100000000000100000000000100000000000,
|
|
100000100000100000000000100000000000000000000000,
|
|
100000000000100000000000100000000000100000000000,
|
|
100000100000100000000000100000000000000000000000,
|
|
100000000000100000000000100000100000100000000000,
|
|
100000000000100000000000100000100000100000000000,
|
|
100000000000100000000000100000100000100000000000,
|
|
100000000000100000000000100000000000000000000000,
|
|
100000100000200000000000100000100000200000000000,
|
|
100000000000100000100000200000000000200000000000,
|
|
100000100000200000000000100000100000200000000000,
|
|
500000000000000000000000800000000000000000000000,
|
|
100000100000200000000000100000100000200000000000,
|
|
100000000000100000100000200000000000200000000000,
|
|
100000000000100000000000100000000000100000000000,
|
|
300000000000000000000000300000000000300000000000,
|
|
100000000000100000000100000000100000000000000000,
|
|
200000000000200000200000000000200000200000000000,
|
|
100000000000100000000100000000100000000000000000,
|
|
200000000000200000200000000000200000200000000000,
|
|
100000000000100000000100000000100000000000000000,
|
|
200000000000200000200000000000200000200000000000,
|
|
100000000000100000100000000000100000100000000000,
|
|
100000000000000000000000100000000000000000000000,
|
|
100000100000000000100000100000000000300000000000,
|
|
100000100000000000100000100000000000200000000000,
|
|
100000100000000000100000100000000000300000000000,
|
|
100000100000000000100000100000000000200000000000,
|
|
100000100000000000100000100000000000300000000000,
|
|
100000100000000000100000100000000000200000000000,
|
|
100000100000000000100000100000000000300000000000,
|
|
100000100000000000100000100000000000300000000000,
|
|
300000000000000000000000000000000000000000000000,
|
|
300000000000000000000000000000000000000000000000,
|
|
|
|
|
|
#END
|
|
|
|
|
|
COURSE:Easy
|
|
LEVEL:4
|
|
SCOREINIT:1040
|
|
SCOREDIFF:330
|
|
|
|
|
|
#START
|
|
|
|
|
|
300000000000000000000000000000000000000000000000,
|
|
300000000000000000000000000000000000000000000000,
|
|
300000000000000000000000000000000000000000000000,
|
|
300000000000000000000000000000000000000000000000,
|
|
100000000000100000000000100000000000000000000000,
|
|
200000000000200000000000200000000000200000000000,
|
|
100000000000100000000000100000000000000000000000,
|
|
200000000000200000000000200000000000200000000000,
|
|
100000000000100000000000100000000000000000000000,
|
|
200000000000200000000000200000000000200000000000,
|
|
100000000000100000000000100000000000100000000000,
|
|
100000000000000000000000100000000000000000000000,
|
|
100000000000000000100000000000000000300000000000,
|
|
100000000000000000000000100000000000100000000000,
|
|
100000000000000000100000000000000000300000000000,
|
|
000000000000000000000000000000000000000000000000,
|
|
100000000000100000000000100000000000000000000000,
|
|
100000000000100000000000100000000000000000000000,
|
|
100000000000100000000000100000000000100000000000,
|
|
100000000000100000000000100000000000000000000000,
|
|
100000000000100000000000100000000000000000000000,
|
|
100000000000100000000000100000000000000000000000,
|
|
100000000000100000000000100000000000100000000000,
|
|
100000000000100000000000100000000000000000000000,
|
|
100000000000200000000000100000000000200000000000,
|
|
100000000000200000000000100000000000000000000000,
|
|
100000000000200000000000100000000000200000000000,
|
|
500000000000000000000000800000000000000000000000,
|
|
100000000000200000000000100000000000200000000000,
|
|
100000000000200000000000100000000000000000000000,
|
|
100000000000100000000000100000000000100000000000,
|
|
300000000000000000000000300000000000000000000000,
|
|
100000000000100000000000100000000000000000000000,
|
|
200000000000200000000000200000000000200000000000,
|
|
100000000000100000000000100000000000000000000000,
|
|
200000000000200000000000200000000000200000000000,
|
|
100000000000100000000000100000000000000000000000,
|
|
200000000000200000000000200000000000200000000000,
|
|
100000000000100000000000100000000000100000000000,
|
|
100000000000000000000000100000000000000000000000,
|
|
100000000000000000100000000000000000300000000000,
|
|
100000000000000000000000100000000000100000000000,
|
|
100000000000000000100000000000000000300000000000,
|
|
100000000000000000000000100000000000100000000000,
|
|
100000000000000000100000000000000000300000000000,
|
|
100000000000000000000000100000000000100000000000,
|
|
100000000000000000100000000000000000300000000000,
|
|
100000000000000000000000100000000000100000000000,
|
|
300000000000000000000000000000000000000000000000,
|
|
300000000000000000000000000000000000000000000000,
|
|
|
|
|
|
#END
|
|
|