forked from ESE/ESE
241 lines
9.2 KiB
Plaintext
241 lines
9.2 KiB
Plaintext
//TJADB Project
|
|
TITLE:Gakuen Tengoku
|
|
TITLEJA:学園天国
|
|
SUBTITLE:--Kyoko Koizumi/Fushigiboshi no Futagohime Gyu!
|
|
BPM:175
|
|
WAVE:Gakuen Tengoku.ogg
|
|
OFFSET:-1.676
|
|
DEMOSTART:45.561
|
|
|
|
COURSE:Oni
|
|
LEVEL:6
|
|
BALLOON:12,12
|
|
|
|
|
|
#START
|
|
|
|
|
|
10002001,
|
|
00002001,
|
|
00002001,
|
|
,
|
|
10202001,
|
|
00202001,
|
|
00202001,
|
|
,
|
|
10202201,
|
|
00202201,
|
|
00202201,
|
|
,
|
|
11202201,
|
|
01202201,
|
|
01202201,
|
|
,
|
|
300000000000000000000000000000000000000000000000,
|
|
000000000000000000000000000000000000000000000000,
|
|
200000000000200000000000000000000000000000000000,
|
|
300000000000000000000000000000000000000000000000,
|
|
100000000000000000000000100000000000100000000000,
|
|
100000000000000000100000000000000000000000000000,
|
|
200000000000000000000000200000000000200000000000,
|
|
200000000000000000200000000000000000000000000000,
|
|
100000000000000000000000100000000000100000000000,
|
|
100000000000000000100000000000000000000000000000,
|
|
200000000000000000000000200000000000200000000000,
|
|
200000000000000000200000000000000000000000000000,
|
|
100000000000000000000000200000000000000000000000,
|
|
100000000000000000000000200000000000000000000000,
|
|
100000000000200000000000100000000000200000000000,
|
|
500000000000000000000000000000000008000000000000,
|
|
100000001000100000000000100000001000100000000000,
|
|
100000001000100000001000100000000000200000000000,
|
|
100000000000100000000000100000001000100000000000,
|
|
100000001000100000001000100000000000200000000000,
|
|
100000001000100000000000100000001000100000000000,
|
|
100000001000100000001000100000000000200000000000,
|
|
100000000000100000000000100000100000000000300000,
|
|
000000000000000000000000000000200000000000700000,
|
|
000000000000000000000000000000000000000000000000,
|
|
800000000100100000000100100000000100100000000000,
|
|
500000000000000000000000000000000000000008000000,
|
|
000000000000000000000000000000200000000000700000,
|
|
000000000000000000000000000000000000000000000000,
|
|
800000000000100000000100100000000100100000000100,
|
|
100000000000000000000000100000000100000000500000,
|
|
000000000000000000000000000000000000000008000000,
|
|
000000000000100000000000100000000000100000000000,
|
|
100000000000000000100000000000200000200000000000,
|
|
200000000000100000000000100000000000100000000000,
|
|
100000000000000000100000000000200000200000000000,
|
|
200000000000100000100000100000000000100000000000,
|
|
200000000000100000100000100000000000200000000000,
|
|
100000001000000010000000100000001000000010000000,
|
|
500000000000000000000000000000000000000000000008,
|
|
000000000000000000000000000000000000000000000000,
|
|
100000001000100000000000100000001000100000000000,
|
|
100000001000100000001000100000000000200000000000,
|
|
100000000000100000000000100000001000100000000000,
|
|
100000001000100000001000100000000000200000000000,
|
|
100000001000100000000000100000001000100000000000,
|
|
100000001000100000001000100000000000200000000000,
|
|
100000000000100000000000100000100000000000300000,
|
|
|
|
|
|
#END
|
|
|
|
|
|
COURSE:Hard
|
|
LEVEL:3
|
|
|
|
|
|
#START
|
|
|
|
|
|
100000000000000000000000200000000000000000000000,
|
|
100000000000000000000000200000000000000000000000,
|
|
100000000000000000000000200000000000000000000000,
|
|
100000000000000000000000000000000000000000000000,
|
|
100000000000200000000000200000000000000000000000,
|
|
100000000000200000000000200000000000000000000000,
|
|
100000000000200000000000200000000000000000000000,
|
|
100000000000000000000000000000000000000000000000,
|
|
100000000000200000000000200000200000000000000000,
|
|
100000000000200000000000200000200000000000000000,
|
|
100000000000200000000000200000200000000000000000,
|
|
100000000000000000000000000000000000000000000000,
|
|
11202200,
|
|
11202200,
|
|
11202200,
|
|
100000000000000000000000000000000000000000000000,
|
|
300000000000000000000000000000000000000000000000,
|
|
000000000000000000000000000000000000000000000000,
|
|
200000000000200000000000000000000000000000000000,
|
|
300000000000000000000000000000000000000000000000,
|
|
100000000000000000000000100000000000100000000000,
|
|
100000000000000000100000000000000000000000000000,
|
|
200000000000000000000000200000000000200000000000,
|
|
200000000000000000200000000000000000000000000000,
|
|
100000000000000000000000100000000000100000000000,
|
|
100000000000000000100000000000000000000000000000,
|
|
200000000000000000000000200000000000200000000000,
|
|
200000000000000000200000000000000000000000000000,
|
|
100000000000000000000000200000000000000000000000,
|
|
100000000000000000000000200000000000000000000000,
|
|
100000000000200000000000100000000000200000000000,
|
|
500000000000000000000000000000000008000000000000,
|
|
100000001000100000000000100000001000100000000000,
|
|
100000001000100000001000100000000000200000000000,
|
|
100000000000100000000000100000001000100000000000,
|
|
100000001000100000001000100000000000200000000000,
|
|
100000001000100000000000100000001000100000000000,
|
|
100000001000100000001000100000000000200000000000,
|
|
100000000000100000000000100000100000000000300000,
|
|
000000000000000000000000000000200000000000700000,
|
|
000000000000000000000000000000000000000000000000,
|
|
800000000100100000000100100000000100100000000000,
|
|
500000000000000000000000000000000000000008000000,
|
|
000000000000000000000000000000200000000000700000,
|
|
000000000000000000000000000000000000000000000000,
|
|
800000000000100000000100100000000100100000000100,
|
|
100000000000000000000000100000000100000000500000,
|
|
000000000000000000000000000000000000000008000000,
|
|
000000000000100000000000100000000000100000000000,
|
|
100000000000000000100000000000200000200000000000,
|
|
200000000000100000000000100000000000100000000000,
|
|
100000000000000000100000000000200000200000000000,
|
|
200000000000100000100000100000000000100000000000,
|
|
200000000000100000100000100000000000200000000000,
|
|
100000001000000010000000100000001000000010000000,
|
|
500000000000000000000000000000000000000000000008,
|
|
000000000000000000000000000000000000000000000000,
|
|
100000001000100000000000100000001000100000000000,
|
|
100000001000100000001000100000000000200000000000,
|
|
100000000000100000000000100000001000100000000000,
|
|
100000001000100000001000100000000000200000000000,
|
|
100000001000100000000000100000001000100000000000,
|
|
100000001000100000001000100000000000200000000000,
|
|
100000000000100000000000100000100000000000300000,
|
|
|
|
|
|
#END
|
|
|
|
|
|
COURSE:Normal
|
|
LEVEL:5
|
|
SCOREINIT:1230
|
|
SCOREDIFF:370
|
|
|
|
|
|
#START
|
|
|
|
|
|
100000000000000000000000000000000000000000000000,
|
|
100000000000000000000000000000000000000000000000,
|
|
100000000000000000000000000000000000000000000000,
|
|
100000000000000000000000000000000000000000000000,
|
|
100000000000000000000000100000000000000000000000,
|
|
100000000000000000000000100000000000000000000000,
|
|
100000000000000000000000100000000000000000000000,
|
|
100000000000000000000000000000000000000000000000,
|
|
100000000000200000000000000000000000200000000000,
|
|
100000000000200000000000000000000000200000000000,
|
|
100000000000200000000000000000000000200000000000,
|
|
100000000000200000000000000000000000000000000000,
|
|
100000000000200000000000000000000000200000000000,
|
|
100000000000200000000000000000000000200000000000,
|
|
100000000000200000000000000000000000200000000000,
|
|
100000000000000000000000000000000000000000000000,
|
|
300000000000000000000000000000000000000000000000,
|
|
000000000000000000000000000000000000000000000000,
|
|
500000000000000000000000000080000000000000000000,
|
|
300000000000000000000000000000000000000000000000,
|
|
100000000000000000000000100000000000100000000000,
|
|
100000000000000000100000000000000000000000000000,
|
|
200000000000000000000000200000000000200000000000,
|
|
200000000000000000200000000000000000000000000000,
|
|
100000000000000000000000100000000000100000000000,
|
|
100000000000000000100000000000000000000000000000,
|
|
200000000000000000000000200000000000200000000000,
|
|
200000000000000000200000000000000000000000000000,
|
|
100000000000000000000000200000000000000000000000,
|
|
100000000000000000000000200000000000000000000000,
|
|
100000000000200000000000100000000000200000000000,
|
|
500000000000000000000000000000000080000000000000,
|
|
100000000000100000000000100000000000100000000000,
|
|
100000000000100000001000100000000000000000000000,
|
|
100000000000100000000000100000000000100000000000,
|
|
100000000000100000001000100000000000000000000000,
|
|
100000000000100000000000100000000000100000000000,
|
|
100000000000100000001000100000000000000000000000,
|
|
100000000000100000000000100000000000000000300000,
|
|
000000000000000000000000000000000000000000000000,
|
|
000000000000000000000000000000000000000000000000,
|
|
000000000000100000000000100000000000100000000000,
|
|
500000000000000000000000000000000000000080000000,
|
|
000000000000000000000000000000200000000000200000,
|
|
000000000000000000000000000000000000000000000000,
|
|
000000000000100000000000100000000000100000000000,
|
|
100000000000000000000000100000000100000000500000,
|
|
000000000000000000000000000000000000000080000000,
|
|
000000000000100000000000100000000000100000000000,
|
|
100000000000000000100000000000200000200000000000,
|
|
200000000000100000000000100000000000100000000000,
|
|
100000000000000000100000000000200000200000000000,
|
|
200000000000100000000000100000000000100000000000,
|
|
200000000000100000000000100000000000200000000000,
|
|
000010000000100000100000000010000000100000100000,
|
|
500000000000000000000000000000000000000000000080,
|
|
000000000000000000000000000000000000000000000000,
|
|
100000000000100000000000100000000000100000001000,
|
|
100000000000100000000000100000000000100000001000,
|
|
100000000000100000000000100000000000100000001000,
|
|
100000000000100000000000100000000000000000000000,
|
|
100000000000100000000000100000000000100000001000,
|
|
100000000000100000000000100000000000100000001000,
|
|
100000000000100000000000100000000000100000001000,
|
|
100000000000100000000000100000000000000000300000,
|
|
|
|
|
|
#END
|
|
|