Files
2023-06-15 19:15:39 -05:00

251 lines
8.8 KiB
Plaintext

//TJADB Project
TITLE:Gekidou
TITLEJA:激動
SUBTITLE:--UVERworld/D.Gray-man
SUBTITLEJA:「驅魔少年」主題曲
BPM:113
WAVE:Gekidou.ogg
OFFSET:-2.227
DEMOSTART:52.908
BGMOVIE:Gekidou.mp4
COURSE:Oni
LEVEL:8
SCOREINIT:750
SCOREDIFF:190
#START
000000000000000000000000000000000000000000000000,
300000000100200100000100000000000000200000000000,
000000000000200000001010200100000100000100000000,
300000000000400000000000300000000100200000000000,
100100100100200000100100000200000100200100100000,
100200000100200000100100000200000200000200000200,
100100100100200000100100000100000100200100100200,
200100100200100200200100000200200200100100100100,
100000000100200100000100200000000000100200200000,
100000100000200100000000200100200000200000100100,
100000000100200100000100200000000100200200100000,
100000100000200100000000100000200000100000000100,
200000000100200100000000100000000000200000000000,
100000100000200100000000100000100000200100000000,
100000100000200100000000100000000000200000000000,
100000100000100200000000100000200100100000000000,
100000200100000100000100000100000100100100200100,
100100200100000100000100000000001010100000000000,
100000000100200100000100000000000100100200100100,
100000100100000100000100000200200100100200100000,
#MEASURE 3/4
100000200100100000100000200100100100,
100000100200000100200000200100100100,
100000200100100000100000200100100100,
#MEASURE 4/4
100000000000100200200200100200200200100200200200,
500000000000000000000000000000000008000000000000,
#GOGOSTART
100000100000200000100200000200000100200000100000,
100100100100200000100100000200100100200000100100,
100000100000200000100200000200000100200000100000,
100100100100200000100100000200100100200000100100,
100000100000200000100200000200000100200000100000,
100100100100200000100100000200100100200000100000,
100000100000200000100200000200000100200000100000,
100000200100200000100100100200100200202020100100,
100100200100200000100200000200000200100100200100,
100100100100200000100200000200000100200100100200,
100100200100200000100200000200000200100100200100,
100100100100200000100200000200100100200000100100,
100100200100200000100200000200000200100100200100,
100100100100200000100200000200000100200100100200,
100100200100200000100200000200100000200200200200,
#GOGOEND
000000000000000000000000000000000000000000000300,
#END
COURSE:Hard
LEVEL:5
SCOREINIT:870
SCOREDIFF:210
#START
000000000000000000000000000000000000000000000000,
100000000200100000000100200000000000200000000000,
000000000000200000000100200100000100000100000000,
600000000000000000000800000000000000300000000000,
100000000100200000100000200100000100200000000000,
100000100000200100000000200100000100000100000000,
100000000100200000100000200100000100200000000000,
200100100100000100100100000200200200100000000000,
100000000100000100100000100000000000100000000000,
100000100000200100000000100000100000200100000000,
100000000100000100100000100000000000100000000000,
100000100000200100000000100000200000100000000100,
100000100000200100000000100000000000200000000000,
100000100000200100000000100000100000200100000000,
100000100000200100000000100000000000200000000000,
500000000000000000000800000000000000300000000000,
100000100100100000200000200000200200000000000000,
100000100100100000200000200000200200000000000000,
100100100000200000100000100100100000200000000000,
100100100000200000100000100100100000200000000000,
#MEASURE 3/4
200000000100100000200000100100100000,
200000100100100000200000100000100000,
200000000100100000200000100100100000,
#MEASURE 4/4
500000000000000000000000000000000000000000000000,
000000000000000000000000000000000800000000000000,
#GOGOSTART
100000100000200000100100000100100000000000000000,
100000100000200100000100000000000000000000000000,
100000100000200000100100000100100000000000000000,
100000100000200100000100000000200000100000000000,
100000100000200000100100000100100000100000000000,
100000100000200000100100000100100000100000000000,
100000100000200000100100000100100000100100100000,
500000000000000000000800000000000000300000000000,
100000100000200000000100000100100000200000000000,
100000100000200000000100000100100000200000000000,
100000100000200000000100000100100000200000000000,
100000100000200000000100000100100000200000000000,
100000100000200000000100000100100000200000000000,
100000100000200000000100000100100000200000000000,
100000100000200000000100000100100000200200200200,
#GOGOEND
000000000000000000000000000000000000000000000300,
#END
COURSE:Normal
LEVEL:4
SCOREINIT:1340
SCOREDIFF:450
#START
000000000000000000000000000000000000000000000000,
100000000000100000000000200000000000200000000000,
000000000000200000000000100000000000000000000000,
600000000000000000800000000000000000300000000000,
100000000000200000000000100000000000100000000000,
000000000000000000000000100000000000100000000000,
100000000000200000000000100000000000100000000000,
000000000000000000000000000000000000000000000000,
100000000000100000000000100000000000000000000000,
100000000000100000000000100000000000000000000000,
100000000000100000000000100000000000000000000000,
100000000000100000000000100000000000000000000000,
100000000000200000000000100000000000000000000000,
100000000000200000000000100000000000000000000000,
100000000000200000000000100000000000000000000000,
500000000000000000800000000000000000300000000000,
100000100000100000000000100000000000000000000000,
100000100000100000000000100000000000000000000000,
100000100000100000000000100000000000000000000000,
100000100000100000000000100000000000000000000000,
#MEASURE 3/4
200000000000000000200000000000200000,
200000000000000000200000000000000000,
200000000000000000200000000000200000,
#MEASURE 4/4
200000000000200000000000200000000000200000200000,
500000000000000000800000000000000000000000000000,
#GOGOSTART
100000100000200000000000100000100000000000000000,
100000100000200000000000100000100000000000000000,
100000100000200000000000100000100000000000000000,
100000100000200000000000100000100000000000000000,
100000000000100000000000100000000000000000000000,
100000000000100000000000100000000000000000000000,
100000000000100000000000100000000000000000000000,
500000000000000000800000000000000000300000000000,
100000000000200000000000100000000000000000000000,
100000000000200000000000100000000000000000000000,
100000000000200000000000100000000000000000000000,
100000000000200000000000100000000000100000000000,
100000000000200000000000100000000000000000000000,
100000000000200000000000100000000000000000000000,
100000000000200000000000100000000000000000000000,
#GOGOEND
000000000000000000000000000000000000000000000300,
#END
COURSE:Easy
LEVEL:3
SCOREINIT:1060
SCOREDIFF:470
#START
000000000000000000000000000000000000000000000000,
300000000000000000000000000000000000000000000000,
000000000000000000000000000000000000000000000000,
500000000000800000000000000000000000300000000000,
100000000000200000000000100000000000100000000000,
000000000000000000000000100000000000000000000000,
100000000000200000000000100000000000100000000000,
000000000000000000000000000000000000000000000000,
100000000000000000000000100000000000000000000000,
100000000000100000000000100000000000000000000000,
100000000000000000000000100000000000000000000000,
100000000000100000000000100000000000000000000000,
100000000000200000000000100000000000000000000000,
100000000000200000000000100000000000000000000000,
100000000000200000000000100000000000000000000000,
500000000000800000000000000000000000300000000000,
100000000000100000000000100000000000000000000000,
100000000000100000000000100000000000000000000000,
100000000000100000000000100000000000000000000000,
100000000000100000000000100000000000000000000000,
#MEASURE 3/4
200000000000000000000000000000000000,
200000000000000000000000000000000000,
200000000000000000000000000000000000,
#MEASURE 4/4
200000000000200000000000200000000000200000000000,
500000000000000000800000000000000000000000000000,
#GOGOSTART
100000000000200000000000100000000000000000000000,
100000000000200000000000100000000000000000000000,
100000000000200000000000100000000000000000000000,
100000000000200000000000100000000000000000000000,
100000000000000000000000000000000000000000000000,
100000000000100000000000100000000000000000000000,
100000000000100000000000100000000000000000000000,
500000000000800000000000000000000000300000000000,
100000000000200000000000100000000000000000000000,
100000000000000000000000100000000000100000000000,
100000000000200000000000100000000000000000000000,
100000000000000000000000100000000000100000000000,
100000000000200000000000100000000000000000000000,
100000000000000000000000100000000000100000000000,
100000000000200000000000100000000000000000000000,
#GOGOEND
000000000000000000000000000000000000000000000300,
#END