forked from ESE/ESE
310 lines
3.9 KiB
Plaintext
310 lines
3.9 KiB
Plaintext
//TJADB Project
|
||
TITLE:Getta Banban
|
||
TITLEJA:ゲッタバンバン
|
||
SUBTITLE:--Tomohisa Sako/Pokémon the Series: XY
|
||
SUBTITLEJA:「ポケットモンスター XY」より
|
||
BPM:167
|
||
WAVE:Getta Banban.ogg
|
||
OFFSET:-0.039
|
||
DEMOSTART:47.269
|
||
|
||
COURSE:Oni
|
||
LEVEL:6
|
||
BALLOON:6,12,12,3
|
||
SCOREINIT:810
|
||
SCOREDIFF:190
|
||
|
||
|
||
#START
|
||
|
||
|
||
11211211,
|
||
2222200000101020,
|
||
01120212,
|
||
02212022,
|
||
01220221,
|
||
01212020,
|
||
500000000008000000200000200000000000000000100000,
|
||
1000222010002010,
|
||
10201120,
|
||
70008112,
|
||
0010202000102011,
|
||
11221022,
|
||
01220121,
|
||
0010201011102020,
|
||
500000000008000000200000200000000000000000100000,
|
||
1000222020001010,
|
||
2121,
|
||
7,
|
||
80010121,
|
||
20201121,
|
||
0022202000102020,
|
||
10210121,
|
||
0010001110102010,
|
||
20201121,
|
||
0022202000201010,
|
||
20210205,
|
||
000000000000000000000008000000000000000000100000,
|
||
01204401,
|
||
02104401,
|
||
0010201110102020,
|
||
3333,
|
||
7,
|
||
08000003,//33
|
||
|
||
#GOGOSTART
|
||
04303003,
|
||
04303003,
|
||
04303001,
|
||
0010201110102020,
|
||
00304021,
|
||
0010200020111020,
|
||
00304021,
|
||
01207083,
|
||
04303003,
|
||
04303003,
|
||
04303001,
|
||
0010201110102020,
|
||
00304021,
|
||
0010200020111020,
|
||
00304001,
|
||
0011101110100020,
|
||
0022202022202050,
|
||
000000000000000000000000000000000008000000000000,//51
|
||
|
||
#GOGOEND
|
||
,
|
||
30303021,
|
||
01202021,
|
||
20201205,
|
||
000000000000000000000000000008000000000000000000,
|
||
3000300020222020,
|
||
2011102000102011,
|
||
1010200010222020,
|
||
03333000,
|
||
|
||
|
||
#END
|
||
|
||
|
||
COURSE:Hard
|
||
LEVEL:5
|
||
BALLOON:5,9,9
|
||
SCOREINIT:650
|
||
SCOREDIFF:180
|
||
|
||
#START
|
||
,
|
||
2222200000101010,
|
||
01110112,
|
||
01201022,
|
||
01110111,
|
||
01201020,
|
||
10022001,
|
||
10202011,
|
||
1212,
|
||
70008112,
|
||
01210121,
|
||
01212022,
|
||
01120121,
|
||
01212121,
|
||
20022001,
|
||
10202011,
|
||
2121,
|
||
7,
|
||
80010121,
|
||
20201021,
|
||
02220121,
|
||
20210121,
|
||
01010121,
|
||
20201021,
|
||
02220211,
|
||
20220205,
|
||
000000000000000000000008000000000000000000100000,
|
||
01104401,
|
||
01104301,
|
||
01212120,
|
||
3333,
|
||
9009,
|
||
08000003,//33
|
||
|
||
#GOGOSTART
|
||
03303003,
|
||
03303003,
|
||
03303001,
|
||
01201121,
|
||
00303021,
|
||
01102111,
|
||
00303021,
|
||
01102003,
|
||
03303003,
|
||
03303003,
|
||
03303001,
|
||
01201121,
|
||
00303021,
|
||
01202111,
|
||
00303001,
|
||
01111102,
|
||
02211225,
|
||
000000000000000000000000000000000008000000000000,//51
|
||
|
||
#GOGOEND
|
||
,
|
||
30303021,
|
||
01202021,
|
||
20201205,
|
||
000000000000000000000000000008000000000000000000,
|
||
30301122,
|
||
02210121,
|
||
10201121,
|
||
03333000,
|
||
,
|
||
,
|
||
#END
|
||
|
||
COURSE:Normal
|
||
LEVEL:4
|
||
BALLOON:3,7,7,15
|
||
|
||
#START
|
||
,
|
||
40400003,
|
||
01,
|
||
1110,
|
||
11,
|
||
1110,
|
||
11,
|
||
1110,
|
||
1122,
|
||
70000803,
|
||
01,
|
||
1110,
|
||
11,
|
||
1110,
|
||
11,
|
||
1110,
|
||
1122,
|
||
7,
|
||
8011,
|
||
100000000000500000000000000000000008000000000000,
|
||
01,
|
||
10101003,
|
||
0011,
|
||
100000000000500000000000000000000008000000000000,
|
||
0011,
|
||
20202005,
|
||
00008003,
|
||
00004003,
|
||
00004003,
|
||
0111,
|
||
3333,
|
||
9009,
|
||
08000003,//33
|
||
|
||
#GOGOSTART
|
||
03303003,
|
||
03303003,
|
||
03303005,
|
||
000000000000000000000000000000000000000008000000,
|
||
0330,
|
||
0110,
|
||
0330,
|
||
00101003,
|
||
03303003,
|
||
03303003,
|
||
03303005,
|
||
00000008,
|
||
0330,
|
||
0110,
|
||
00303005,
|
||
000000000000000000000000000008000000000000900000,
|
||
,
|
||
09,//51
|
||
|
||
#GOGOEND
|
||
8,
|
||
3330,
|
||
1110,
|
||
10101005,
|
||
000000000000000000000000000008000000000000000000,
|
||
3330,
|
||
1110,
|
||
10101005,
|
||
000000000000000000000000000008000000000000000000,
|
||
,
|
||
,
|
||
#END
|
||
|
||
COURSE:Easy
|
||
LEVEL:2
|
||
BALLOON:4,7,4,9
|
||
|
||
#START
|
||
#SCROLL 0.8
|
||
,
|
||
00000003,
|
||
,
|
||
1,
|
||
1,
|
||
11,
|
||
1,
|
||
11,
|
||
11,
|
||
10000003,
|
||
,
|
||
1,
|
||
1,
|
||
11,
|
||
1,
|
||
11,
|
||
11,
|
||
78,
|
||
,
|
||
500000000000000000000000000000000008000000000000,
|
||
,
|
||
10000001,
|
||
,
|
||
500000000000000000000000000000000008000000000000,
|
||
,
|
||
7,
|
||
80000003,
|
||
00000003,
|
||
00000003,
|
||
,
|
||
3333,
|
||
9009,
|
||
08000006,//33
|
||
|
||
#GOGOSTART
|
||
000000000000000000000008000000000000000000600000,
|
||
000000000000000000000008000000000000000000600000,
|
||
000000000000000000000008000000000000000000000000,
|
||
,
|
||
0330,
|
||
,
|
||
0330,
|
||
00000006,
|
||
000000000000000000000008000000000000000000600000,
|
||
000000000000000000000008000000000000000000600000,
|
||
000000000000000000000008000000000000000000000000,
|
||
,
|
||
0330,
|
||
,
|
||
00303005,
|
||
000000000000000000000000000008000000000000900000,
|
||
,
|
||
09,//51
|
||
|
||
#GOGOEND
|
||
8,
|
||
3330,
|
||
,
|
||
10001005,
|
||
000000000000000000000000000008000000000000000000,
|
||
3330,
|
||
,
|
||
10001005,
|
||
000000000000000000000000000008000000000000000000,
|
||
,
|
||
,
|
||
#END |