forked from ESE/ESE
439 lines
14 KiB
Plaintext
439 lines
14 KiB
Plaintext
//TJADB Project
|
||
TITLE:Gomakashi
|
||
TITLEJA:ごまかし
|
||
SUBTITLE:--TrySail/Magia Record: Mahou Shoujo Madoka☆Magica Gaiden
|
||
SUBTITLEJA:「マギアレコード 魔法少女まどか☆マギカ外伝」より
|
||
BPM:189
|
||
WAVE:Gomakashi.ogg
|
||
OFFSET:-2.751
|
||
DEMOSTART:58.620
|
||
|
||
COURSE:Oni
|
||
LEVEL:8
|
||
BALLOON:25,9,23
|
||
SCOREINIT:780
|
||
SCOREDIFF:215
|
||
|
||
|
||
#START
|
||
|
||
|
||
#MEASURE 8/4
|
||
#SCROLL 0.5
|
||
1000201010002022,
|
||
1001201010002010,
|
||
1001201010002022,
|
||
#MEASURE 6/4
|
||
10010010
|
||
#BPMCHANGE 94.5
|
||
7000,
|
||
#MEASURE 8/4
|
||
#BPMCHANGE 189
|
||
0800,
|
||
|
||
#GOGOSTART
|
||
#MEASURE 4/4
|
||
#SCROLL 1
|
||
1000102210102011,
|
||
1010202000102022,
|
||
1000102210102020,
|
||
0020002000112222,
|
||
1000102210102011,
|
||
11220111,
|
||
222222111111,
|
||
4000001120000000,
|
||
|
||
#GOGOEND
|
||
1001,
|
||
1001,
|
||
10110100,
|
||
1,
|
||
1001,
|
||
1002,
|
||
20220200,
|
||
1001001020002030,
|
||
0000200020001022,
|
||
1000200020201011,
|
||
1000201020102011,
|
||
1010222011102222,
|
||
1000200020101022,
|
||
1000101120102010,
|
||
4000201110201111,
|
||
1020201120102000,
|
||
10211021,
|
||
0010201110002010,
|
||
1001201010002010,
|
||
0010201110102022,
|
||
1001201010002010,
|
||
0010201120002000,
|
||
70000820,
|
||
500000000000000008000000000000000000200000000000,
|
||
22,
|
||
200000222222,
|
||
|
||
#GOGOSTART
|
||
3000102210102010,
|
||
000000500000000000000000000008000000200000200000,
|
||
1000102210102010,
|
||
000000500000000000000000000008000000200000200200,
|
||
1000202210102011,
|
||
1000202210102011,
|
||
1010201000202011,
|
||
1110200011112222,
|
||
0000302210102010,
|
||
000000500000000000000000000008000000200000200000,
|
||
1000102210102011,
|
||
1020201220102020,
|
||
1000102220102010,
|
||
1000102220102010,
|
||
100000100100202020101010,
|
||
3000002220101010,
|
||
2011111110111111,
|
||
1011111110111111,
|
||
1001001002000000200101010,
|
||
21120000,
|
||
|
||
#GOGOEND
|
||
#MEASURE 8/4
|
||
70000000
|
||
#SCROLL 0.5
|
||
00080000,
|
||
2022000020020000,
|
||
3,
|
||
|
||
|
||
#END
|
||
|
||
|
||
COURSE:Hard
|
||
LEVEL:5
|
||
BALLOON:19,18
|
||
SCOREINIT:770
|
||
SCOREDIFF:230
|
||
|
||
|
||
#START
|
||
|
||
|
||
#SCROLL 0.5
|
||
100000000000000000000000000000000000100000000000,
|
||
#BARLINEOFF
|
||
100000000000000000000000000000000000100000000000,
|
||
#BARLINEON
|
||
100000000000000000100000000000000000100000000000,
|
||
#BARLINEOFF
|
||
100000000000000000000000000000000000100000000000,
|
||
#BARLINEON
|
||
100000000000000000100000000000000000100000000000,
|
||
#BARLINEOFF
|
||
100000000000000000000000000000000000100000000000,
|
||
#BARLINEON
|
||
100000000000000000100000000000000000100000000000,
|
||
#BARLINEOFF
|
||
#BPMCHANGE 94.5
|
||
#MEASURE 2/4
|
||
700000000000000000000000,
|
||
#BPMCHANGE 189
|
||
#MEASURE 4/4
|
||
#BARLINEON
|
||
000000000000000000000000800000000000000000000000,
|
||
#BARLINEOFF
|
||
000000000000000000000000000000000000000000000000,
|
||
#SCROLL 1
|
||
#GOGOSTART
|
||
#BARLINEON
|
||
100000000000200000100000100000100000200000200000,
|
||
000000000000200000200000000000100000200000200000,
|
||
100000000000200000100000100000100000200000200000,
|
||
000000200000000000200000000000100000100000000000,
|
||
100000000000200000100000100000100000200000200000,
|
||
000000000000200000200000000000100000100000000000,
|
||
100010001000100000000000100010001000100000000000,
|
||
400000000000000000200200200000000000000000000000,
|
||
#GOGOEND
|
||
100000000000000000000000000000000000100000000000,
|
||
100000000000000000000000000000000000100000000000,
|
||
100000000000100000100000000000100000000000000000,
|
||
100000000000000000000000000000000000000000000000,
|
||
100000000000000000000000000000000000100000000000,
|
||
100000000000000000000000000000000000200000000000,
|
||
200000000000200000200000000000200000000000000000,
|
||
100000000100000000100000100000000000000000300000,
|
||
000000000000200000000000200000000000100000000000,
|
||
100000000000200000000000200000000000100000000000,
|
||
100000000000100000100000200000100000200000000000,
|
||
100000000000200000000000200200200000200000000000,
|
||
100000000000200000000000200000000000100000000000,
|
||
100000000000100000100000200000100000200000000000,
|
||
400000000000200000100000100000100000100000000000,
|
||
100000200000200000100000200000100000200000000000,
|
||
100000000000100000000000200000000000200000100000,
|
||
000000100000000000100000100000000000200000000000,
|
||
100000000100000000100000100000000000200000100000,
|
||
000000100000100000100000000000200000200000000000,
|
||
100000000100000000100000100000000000200000100000,
|
||
000000100000000000200200200000000000200000000000,
|
||
500000000000000000000000000000000000000000000000,
|
||
000000000000000000800000000000000000200000000000,
|
||
200000000000000000000000200000000000000000000000,
|
||
200000000000000000000000400000000000000000000000,
|
||
#GOGOSTART
|
||
300000000000200000000000100000100000200000100000,
|
||
000000100000200000000000100000100000200000200000,
|
||
100000000000200000000000100000100000200000100000,
|
||
000000100000200000000000100000100000200000200000,
|
||
100000000000200000000000100000100000200000000000,
|
||
100000000000200000000000100000100000200000000000,
|
||
100000000000200000100000000000200000200000100000,
|
||
000000200000200000000000100100100000100000000000,
|
||
000000000000400000000000100000100000200000100000,
|
||
000000100000200000000000100000100000200000200000,
|
||
100000000000200000000000100000100000200000100000,
|
||
000000100000200000000000100000100000200000200000,
|
||
100000000000200000000000200000100000200000000000,
|
||
100000000000200000000000200000100000200000000000,
|
||
100000000000200000100000000000200000100000000000,
|
||
300000000000000000200200200000100000100000000000,
|
||
100000000000100100100000100000000000100100100000,
|
||
100000000000100100100000100000000000100100100000,
|
||
100000000000100000200000000000100000100000000000,
|
||
200000100000100000200000000000000000000000000000,
|
||
#GOGOEND
|
||
700000000000000000000000000000000000000000000000,
|
||
#BARLINEOFF
|
||
#SCROLL 0.5
|
||
000000000000000000800000000000000000000000000000,
|
||
#BARLINEON
|
||
200000000000000000200000000000000000000000000000,
|
||
#BARLINEOFF
|
||
200000000000000000200000000000000000000000000000,
|
||
#BARLINEON
|
||
300000000000000000000000000000000000000000000000,
|
||
#BARLINEOFF
|
||
000000000000000000000000000000000000000000000000,
|
||
#SCROLL 1
|
||
000000000000000000000000000000000000000000000000,
|
||
000000000000000000000000000000000000000000000000,
|
||
|
||
#END
|
||
|
||
COURSE:1
|
||
LEVEL:6
|
||
BALLOON:11,4,10
|
||
SCOREINIT:1070
|
||
SCOREDIFF:390
|
||
|
||
#START
|
||
#SCROLL 0.5
|
||
100000000000000000000000000000000000100000000000,
|
||
#BARLINEOFF
|
||
100000000000000000000000000000000000000000000000,
|
||
#BARLINEON
|
||
100000000000000000000000000000000000100000000000,
|
||
#BARLINEOFF
|
||
100000000000000000000000000000000000000000000000,
|
||
#BARLINEON
|
||
100000000000000000000000000000000000100000000000,
|
||
#BARLINEOFF
|
||
100000000000000000000000000000000000000000000000,
|
||
#BARLINEON
|
||
100000000000000000000000000000000000000000000000,
|
||
#BARLINEOFF
|
||
#BPMCHANGE 94.5
|
||
#MEASURE 2/4
|
||
700000000000000000000000,
|
||
#BPMCHANGE 189
|
||
#MEASURE 4/4
|
||
#BARLINEON
|
||
000000000000000000000000800000000000000000000000,
|
||
#BARLINEOFF
|
||
000000000000000000000000000000000000000000000000,
|
||
#SCROLL 1
|
||
#GOGOSTART
|
||
#BARLINEON
|
||
100000000000000000000000100000100000000000100000,
|
||
000000000000100000100000000000000000000000000000,
|
||
100000000000000000000000100000100000000000200000,
|
||
000000200000000000200000000000000000000000000000,
|
||
100000000000000000000000100000100000000000100000,
|
||
000000000000100000100000000000000000000000000000,
|
||
100000000000100000000000100000000000100000000000,
|
||
400000000000000000000000000000000000000000000000,
|
||
#GOGOEND
|
||
100000000000000000000000000000000000100000000000,
|
||
100000000000000000000000000000000000100000000000,
|
||
100000000000100000100000000000100000000000000000,
|
||
100000000000000000000000000000000000000000000000,
|
||
100000000000000000000000000000000000100000000000,
|
||
100000000000000000000000000000000000200000000000,
|
||
200000000000200000200000000000200000000000000000,
|
||
700000000000000000000000000000800000000000300000,
|
||
000000000000000000000000000000000000100000000000,
|
||
100000000000000000000000000000000000100000000000,
|
||
100000000000100000100000000000100000000000000000,
|
||
100000000000000000000000000000000000000000000000,
|
||
200000000000000000000000000000000000200000000000,
|
||
200000000000200000200000000000200000000000000000,
|
||
400000000000000000100000100000000000000000000000,
|
||
000000000000000000000000100000000000000000000000,
|
||
100000000000000000000000200000000000000000100000,
|
||
000000100000000000200000200000000000000000000000,
|
||
100000000000000000000000200000000000000000100000,
|
||
000000100000000000200000200000000000000000000000,
|
||
100000000000000000000000200000000000000000100000,
|
||
000000100000000000200000200000000000200000000000,
|
||
500000000000000000000000000000000000000000000000,
|
||
000000000000000000800000000000000000200000000000,
|
||
200000000000000000000000200000000000000000000000,
|
||
200000000000000000000000000000000000000000000000,
|
||
#GOGOSTART
|
||
300000000000200000000000100000100000100000100000,
|
||
000000100000000000000000000000000000100000100000,
|
||
100000000000200000000000100000100000100000100000,
|
||
000000100000000000000000000000000000100000100000,
|
||
100000000000000000000000200000000000200000000000,
|
||
100000000000000000000000200000000000200000000000,
|
||
100000000000100000100000000000200000200000200000,
|
||
000000000000000000000000300000000000300000000000,
|
||
000000000000400000000000100000100000100000100000,
|
||
000000100000000000000000000000000000100000100000,
|
||
100000000000200000000000100000100000100000100000,
|
||
000000100000000000000000000000000000200000200000,
|
||
200000000000000000000000200000000000100000000000,
|
||
200000000000000000000000200000000000100000000000,
|
||
200000000000100000100000000000100000000000000000,
|
||
300000000000000000000000000000000000100000000000,
|
||
100000000000100000000000200000000000200000000000,
|
||
100000000000100000000000200000000000200000000000,
|
||
300000000000000000300000000000000000000000000000,
|
||
400000000000000000400000000000000000000000000000,
|
||
#GOGOEND
|
||
700000000000000000000000000000000000000000000000,
|
||
#BARLINEOFF
|
||
#SCROLL 0.5
|
||
000000000000000000800000000000000000000000000000,
|
||
#BARLINEON
|
||
200000000000000000000000000000000000000000000000,
|
||
#BARLINEOFF
|
||
200000000000000000000000000000000000000000000000,
|
||
#BARLINEON
|
||
300000000000000000000000000000000000000000000000,
|
||
#BARLINEOFF
|
||
000000000000000000000000000000000000000000000000,
|
||
#SCROLL 1
|
||
000000000000000000000000000000000000000000000000,
|
||
000000000000000000000000000000000000000000000000,
|
||
|
||
#END
|
||
|
||
COURSE:0
|
||
LEVEL:3
|
||
BALLOON:9,8
|
||
SCOREINIT:1220
|
||
SCOREDIFF:985
|
||
|
||
#START
|
||
#SCROLL 0.5
|
||
000000000000000000000000000000000000000000000000,
|
||
#BARLINEOFF
|
||
000000000000000000000000000000000000000000000000,
|
||
#BARLINEON
|
||
000000000000000000000000000000000000000000000000,
|
||
#BARLINEOFF
|
||
000000000000000000000000000000000000000000000000,
|
||
#BARLINEON
|
||
100000000000000000000000000000000000000000000000,
|
||
#BARLINEOFF
|
||
000000000000000000000000000000000000000000000000,
|
||
#BARLINEON
|
||
100000000000000000000000000000000000000000000000,
|
||
#BARLINEOFF
|
||
#BPMCHANGE 94.5
|
||
#MEASURE 2/4
|
||
#SCROLL 1
|
||
700000000000000000000000,
|
||
#BPMCHANGE 189
|
||
#MEASURE 4/4
|
||
#SCROLL 0.5
|
||
#BARLINEON
|
||
000000000000000000800000000000000000000000000000,
|
||
#BARLINEOFF
|
||
000000000000000000000000000000000000000000000000,
|
||
#SCROLL 1
|
||
#GOGOSTART
|
||
#BARLINEON
|
||
100000000000000000000000000000000000000000100000,
|
||
000000000000000000000000000000000000000000000000,
|
||
100000000000000000000000000000000000000000100000,
|
||
000000000000000000000000000000000000000000000000,
|
||
100000000000000000000000000000000000000000100000,
|
||
000000000000000000000000000000000000000000000000,
|
||
300000000000000000000000000000000000000000000000,
|
||
400000000000000000000000000000000000000000000000,
|
||
#GOGOEND
|
||
100000000000000000000000000000000000100000000000,
|
||
100000000000000000000000000000000000000000000000,
|
||
100000000000000000000000000000000000000000000000,
|
||
100000000000000000000000000000000000000000000000,
|
||
100000000000000000000000000000000000100000000000,
|
||
100000000000000000000000000000000000000000000000,
|
||
200000000000000000000000000000000000000000000000,
|
||
000000000000000000000000000000000000000000300000,
|
||
000000000000000000000000000000000000100000000000,
|
||
100000000000000000000000000000000000000000000000,
|
||
100000000000000000000000000000000000000000000000,
|
||
100000000000000000000000000000000000000000000000,
|
||
200000000000000000000000000000000000200000000000,
|
||
200000000000000000000000000000000000000000000000,
|
||
400000000000000000000000000000000000000000000000,
|
||
000000000000000000000000000000000000000000000000,
|
||
100000000000000000000000000000000000000000100000,
|
||
000000100000000000000000000000000000000000000000,
|
||
100000000000000000000000000000000000000000100000,
|
||
000000100000000000000000000000000000000000000000,
|
||
100000000000000000000000000000000000000000100000,
|
||
000000100000000000000000000000000000000000000000,
|
||
500000000000000000000000000000000000000000000000,
|
||
000000000000000080000000000000000000000000000000,
|
||
200000000000000000000000000000000000000000000000,
|
||
000000000000000000000000000000000000000000000000,
|
||
#GOGOSTART
|
||
100000000000000000000000100000000000000000100000,
|
||
000000100000000000000000000000000000000000000000,
|
||
100000000000000000000000100000000000000000100000,
|
||
000000100000000000000000000000000000000000000000,
|
||
100000000000000000000000200000000000000000000000,
|
||
100000000000000000000000200000000000000000000000,
|
||
500000000000000000000000000000000000000000000000,
|
||
000000000000000080000000000000000000000000000000,
|
||
100000000000000000000000100000000000000000100000,
|
||
000000100000000000000000000000000000000000000000,
|
||
100000000000000000000000100000000000000000100000,
|
||
000000100000000000000000000000000000000000000000,
|
||
100000000000000000000000200000000000000000000000,
|
||
100000000000000000000000200000000000000000000000,
|
||
100000000000000000000000000000000000000000000000,
|
||
300000000000000000000000000000000000000000000000,
|
||
100000000000000000000000100000000000000000000000,
|
||
100000000000000000000000100000000000000000000000,
|
||
300000000000000000300000000000000000000000000000,
|
||
400000000000000000400000000000000000000000000000,
|
||
#GOGOEND
|
||
700000000000000000000000000000000000000000000000,
|
||
#BARLINEOFF
|
||
#SCROLL 0.5
|
||
000000000000800000000000000000000000000000000000,
|
||
#BARLINEON
|
||
000000000000000000000000000000000000000000000000,
|
||
#BARLINEOFF
|
||
000000000000000000000000000000000000000000000000,
|
||
#BARLINEON
|
||
300000000000000000000000000000000000000000000000,
|
||
#BARLINEOFF
|
||
000000000000000000000000000000000000000000000000,
|
||
#SCROLL 1
|
||
000000000000000000000000000000000000000000000000,
|
||
000000000000000000000000000000000000000000000000,
|
||
|
||
#END
|