forked from ESE/ESE
369 lines
6.7 KiB
Plaintext
369 lines
6.7 KiB
Plaintext
//TJADB Project
|
|
TITLE:Guren no Yumiya -Cover Version-
|
|
TITLEJA:紅蓮の弓矢 -Cover Version-
|
|
SUBTITLE:--Linked Horizon/Attack on Titan
|
|
SUBTITLEJA:「進撃の巨人」より
|
|
BPM:180.62
|
|
WAVE:Guren no Yumiya -Cover Version-.ogg
|
|
OFFSET:-1.931
|
|
DEMOSTART:48.437
|
|
|
|
COURSE:Oni
|
|
LEVEL:8
|
|
BALLOON:8
|
|
SCOREINIT:600
|
|
SCOREDIFF:130
|
|
|
|
|
|
#START
|
|
|
|
|
|
300000000000200000200000000000200000200000200000,
|
|
000000200000200000200000000000200000100100100100,
|
|
|
|
#GOGOSTART
|
|
100000100100100000100000000000100000200000100000,
|
|
000000100000200000100000000000200000100100100100,
|
|
100000100100100000100000000000100000200000100000,
|
|
000000100000200000100000000000100000200200200200,
|
|
100000200200200000100000000000100000200000100000,
|
|
000000100000200000100000000000100000200200200200,
|
|
100000200200200000100000000000100000200000100000,
|
|
000000100000200000100000000000200000000000000000,
|
|
|
|
#GOGOEND
|
|
100000200000200000100000200000100100200000000000,
|
|
200000000000200000000000200000000000200000100000,
|
|
200000000000200000000000200000100000200000100000,
|
|
200000000000200000000000200000000000200000200200,
|
|
100000000000200000000000200000100000200200200200,
|
|
100000000000200000000000200000000000200000200200,
|
|
100000000000200000000000200000100000200000100000,
|
|
200000000000200000000000200000000000200000200200,
|
|
100000000000200000000000200000400000000000000000,
|
|
100000000000100000000000100000100100200000200000,
|
|
100000100100200000200000100000200100100100200000,
|
|
100000000000100000000000100000100100200000200000,
|
|
100000100100200000200000100000200200100100100000,
|
|
100000000000100000000000100000100100200000200000,
|
|
100000100100200000200000100000200100100100200000,
|
|
100000000000100000000000100000100100200000200000,
|
|
100000200200100200200000100000000000000000000000,
|
|
100000000000200000000000200000100100200000100000,
|
|
100000000000200000000000200000100100200000001000,
|
|
100000000000100000002000200000000000200000001000,
|
|
100000000000100000002000200000000000200000300000,
|
|
000000100000200000000000100100100000200000000000,
|
|
200000100000200000100000000000200000000000300000,
|
|
000000100000200000000000100100100000200000000000,
|
|
78,
|
|
|
|
#GOGOSTART
|
|
100100100000200000100000100000100100200100100000,
|
|
000000100000100000100000100000200200100100100000,
|
|
100100100000200000100000100000200200200000500000,
|
|
000008000000200200200000000000400000000000000000,
|
|
100100100000200000100000100000100100200100100000,
|
|
000000100000100000100000100000200200100100100000,
|
|
100100100000200000100000100000200100100100200000,
|
|
000000500000000008000000400000000000000000000000,
|
|
100100100100200000100000100000100100200100100000,
|
|
000000200000100000100000200100100100200000100000,
|
|
100100100100200000100000100000200200200000500000,
|
|
000008000000200200200000000000400000000000000000,
|
|
100100100100200000100000100000100100200100100000,
|
|
000000200000100000100000200100100100200100100100,
|
|
|
|
#GOGOEND
|
|
100000000000000000000000200000100100100100100100,
|
|
|
|
#GOGOSTART
|
|
100000100100100000100000000000100000200000100000,
|
|
000000100000200000100000000000200000100100100100,
|
|
100000100100100000100000000000100000200000100000,
|
|
000000100000200000100000000000100000200200200200,
|
|
100000200200200000100000000000100000200000100000,
|
|
000000100000200000100000000000100000200200200200,
|
|
100000200200200000100000000000100000200000100000,
|
|
000000100000200000100000200200100200200200100200,
|
|
200000000000200000100000200000100100200000100000,
|
|
200000100100200000100000200000100000200000100100,
|
|
200000000000200000100000200000100100200000100000,
|
|
200000100100200000100000200000100000200100100100,
|
|
200000100000200200100200200000100000200100100100,
|
|
200000100000200200100200200000100000200200100000,
|
|
400000000000300000300000000000400000400000000000,
|
|
300000200200100100100000600000000000000000000000,
|
|
000000000000000000000000000000000000000000000008,
|
|
|
|
#GOGOEND
|
|
|
|
|
|
#END
|
|
|
|
|
|
COURSE:Hard
|
|
LEVEL:6
|
|
BALLOON:6
|
|
|
|
#START
|
|
3,
|
|
,//2
|
|
|
|
#GOGOSTART
|
|
30210201,
|
|
02010200,
|
|
30210201,
|
|
02010200,
|
|
30210201,
|
|
02010200,
|
|
30210201,
|
|
02010200,//10
|
|
|
|
#GOGOEND
|
|
5000000000000000000000000000000000000000000000080000000000000000,
|
|
20202021,
|
|
20202120,
|
|
20202021,
|
|
20202120,
|
|
20202021,
|
|
20202120,
|
|
20202021,
|
|
20202400,
|
|
1000100010111000,
|
|
1000100020111000,
|
|
1000100010111000,
|
|
1000100020111000,
|
|
1000100010111000,
|
|
1000100020111000,
|
|
1000100010111000,
|
|
2120,
|
|
10202021,
|
|
1222,
|
|
34,
|
|
30004003,
|
|
01201120,
|
|
10210203,
|
|
01201120,
|
|
78,//35
|
|
|
|
#GOGOSTART
|
|
1110101000200011,
|
|
11110200,
|
|
1110101000200020,
|
|
00110400,
|
|
1110101000200011,
|
|
11110200,
|
|
1110101000202020,
|
|
0000000050000000000000080000000040000000000000000000000000000000,
|
|
1110101000200011,
|
|
11110200,
|
|
1110101000200020,
|
|
00110400,
|
|
1110101000200011,
|
|
11110203,//49
|
|
|
|
#GOGOEND
|
|
,//50
|
|
|
|
#GOGOSTART
|
|
30210201,
|
|
02010200,
|
|
30210201,
|
|
02010200,
|
|
30210201,
|
|
02010200,
|
|
30210201,
|
|
02010200,
|
|
20202121,
|
|
2000200011102000,
|
|
20202121,
|
|
2000200011102000,
|
|
#BPMCHANGE 182.2
|
|
2000200011102000,
|
|
2000200011102000,
|
|
40330440,
|
|
06,
|
|
0000000000000000000000000000000000000000000000000000000000000008,//67
|
|
|
|
#GOGOEND
|
|
,
|
|
#END
|
|
|
|
COURSE:Normal
|
|
LEVEL:6
|
|
BALLOON:5
|
|
|
|
#START
|
|
3,
|
|
,//2
|
|
|
|
#GOGOSTART
|
|
10110201,
|
|
01020200,
|
|
10110201,
|
|
01020200,
|
|
10220201,
|
|
01020200,
|
|
10220201,
|
|
01020200,//10
|
|
|
|
#GOGOEND
|
|
5000000000000000000000000000000000000008000000000000000000000000,
|
|
11,
|
|
1011,
|
|
11,
|
|
1011,
|
|
22,
|
|
2022,
|
|
22,
|
|
20002400,
|
|
1111,
|
|
10102011,
|
|
1111,
|
|
10102011,
|
|
1111,
|
|
10102011,
|
|
1121,
|
|
2120,
|
|
10202021,
|
|
1222,
|
|
34,
|
|
30004003,
|
|
00201120,
|
|
10020203,
|
|
00201120,
|
|
78,//35
|
|
|
|
#GOGOSTART
|
|
10110201,
|
|
01110200,
|
|
10110201,
|
|
00220400,
|
|
10110201,
|
|
01110200,
|
|
10110111,
|
|
0000000060000000000000000000000000000008000000000000000000000000,
|
|
10110201,
|
|
01110200,
|
|
10110201,
|
|
00220400,
|
|
10110201,
|
|
01110200,//49
|
|
|
|
#GOGOEND
|
|
3,//50
|
|
|
|
#GOGOSTART
|
|
10110201,
|
|
01020200,
|
|
10110201,
|
|
01020200,
|
|
10220201,
|
|
01020200,
|
|
10220201,
|
|
01020200,
|
|
2111,
|
|
20101120,
|
|
2111,
|
|
20101120,
|
|
#BPMCHANGE 182.2
|
|
20201120,
|
|
20201120,
|
|
40330440,
|
|
06,
|
|
0000000000000000000000000000000000000000000000000000000000000008,//67
|
|
|
|
#GOGOEND
|
|
,
|
|
,
|
|
#END
|
|
|
|
COURSE:Easy
|
|
LEVEL:4
|
|
BALLOON:3,4
|
|
|
|
#START
|
|
3,
|
|
,//2
|
|
|
|
#GOGOSTART
|
|
10100101,
|
|
01010100,
|
|
10100101,
|
|
01010100,
|
|
20200101,
|
|
01010200,
|
|
20200101,
|
|
01010200,//10
|
|
|
|
#GOGOEND
|
|
5000000000000000000000000000000000000008000000000000000000000000,
|
|
11,
|
|
1110,
|
|
11,
|
|
1110,
|
|
22,
|
|
2220,
|
|
22,
|
|
2220,
|
|
11,
|
|
1011,
|
|
12,
|
|
1011,
|
|
11,
|
|
1011,
|
|
12,
|
|
1,
|
|
1120,
|
|
1120,
|
|
34,
|
|
30004003,
|
|
0111,
|
|
70080003,
|
|
0111,
|
|
78,//35
|
|
|
|
#GOGOSTART
|
|
10101001,
|
|
00020200,
|
|
10101001,
|
|
00040400,
|
|
10101001,
|
|
00020200,
|
|
1110,
|
|
0000000060000000000000000000000000000008000000000000000000000000,
|
|
10102001,
|
|
00020200,
|
|
10102001,
|
|
00040400,
|
|
10102001,
|
|
00020200,//49
|
|
|
|
#GOGOEND
|
|
3,//50
|
|
|
|
#GOGOSTART
|
|
10100101,
|
|
01010100,
|
|
10100101,
|
|
01010100,
|
|
20200101,
|
|
01010200,
|
|
20200101,
|
|
01010200,
|
|
2111,
|
|
1112,
|
|
2111,
|
|
1112,
|
|
#BPMCHANGE 182.2
|
|
2111,
|
|
2111,
|
|
30330440,
|
|
06,
|
|
0000000000000000000000000000000000000000000000000000000000000008,//67
|
|
|
|
#GOGOEND
|
|
,
|
|
,
|
|
#END |