Files
2023-06-15 19:15:39 -05:00

270 lines
10 KiB
Plaintext

//TJADB Project
TITLE:HANDS UP!
TITLEJA:HANDS UP!
SUBTITLE:--Kota Shinzato/ONE PIECE
SUBTITLEJA:「ワンピース」より
BPM:130
WAVE:HANDS UP!.ogg
OFFSET:-2.023
DEMOSTART:56.251
COURSE:Oni
LEVEL:7
SCOREINIT:800
SCOREDIFF:190
#START
000000000000000000100000100000000000100000100000,
100000000000200000100000000000100000000000100000,
000200200000200000200000000000200200200000200000,
100000000000200000100000000000100000000000100000,
#BPMCHANGE 130.44
000200200000200000200000000000200200200000200000,
#BPMCHANGE 130
100000000000200000100000000000100000000000100000,
100000200200200000100000100000200200200000000000,
100000100000100000100000100000100100100000100100,
100000200000200000000000000000000000300000000000,
300000000000000000000000000000000000000000000000,
100000000200200000200000000000200000200000200000,
100000000200000000200000000000200000200000200000,
100000000200200000200000000000200000000000100100,
100000000100200000100000100000000100200000100100,
100000000200000000100000100200000000200000200200,
100000000100200000100000100000000100200000100100,
100000000200000000100000100200100000200000200200,
100000000100200000100000100000000100200000100100,
100000000200000000100000100200100000200000200000,
500000000000000000000008000000100000100000200000,
000000100000000000100000100000200200200000200200,
100000000000200000100000000000200000000000100100,
100000000000200000100000000000200200200000200200,
100000000000200000100000000000200000000000100100,
100000000000200000100000000000200200100000200200,
100000000000200000100000000000200000000000100100,
100000000000200000200200100000100000000000100100,
100000000000200000200200100000100000000000200200,
100000000000200000200200100000200200100200100000,
300000300000000000000000000000200200200000200000,
#GOGOSTART
100000000100200000100000200100200000100000200200,
100000000100200000100000200000200200100100200200,
100000000100200000100000200100200000100000200200,
100000000100200000100000200000200200100100200200,
100000000100200000100000200100200000100000200200,
100000000100200000100000200000200200100100200200,
100000000100200000100000200100200000100000200000,
500000000000000000000000000000000008000000000000,
100000000100200000100000200100200000100000200200,
100000000100200000100100200000100100200100100000,
100000000100200000100000200100200000100000200200,
100000000100200000100100200000200200100100200200,
100000000100200000100000200100200000100000200200,
100000000100200000100100200000100100200100100200,
100000000100200000100000000000200000000000100000,
000000100000100000000000200200100200200100100000,
100100000100200000100100000100200000100000300000,
#GOGOEND
#END
COURSE:Hard
LEVEL:6
SCOREINIT:760
SCOREDIFF:210
#START
000000000000000000100000100000000000200000000000,
300000000000200000100000000000200000000000200000,
000000200000200000000000200000000000200000000000,
300000000000200000100000000000200000000000200000,
000000200000200000000000200000000000200000000000,
300000000000200000100000000000200000000000200000,
000000200000200000000000100000000000200000000000,
100000100000100000000000100000100000100000000000,
100000100000100000100000100000000000300000000000,
300000000000000000000000000000000000000000000000,
100000000000100000200000000000200000200000000000,
100000000000100000200000000000200000200000000000,
100000000000100000200000200000200000000000100000,
100000000200000000100000100000000200000000100000,
100000000200000000100000100000000000200000100100,
100000000200000000100000100000000200000000100000,
100000000200000000100000100000000000200000100100,
100000000200000000100000100000000200000000100000,
100000000200000000100000100000000000200000000000,
500000000000000000000008000000100000100000100000,
000000100000000000100000100000200200200000000000,
100000000000200000100000000000100000000000200000,
100000000000200000100000000000100000000000200000,
100000000000200000100000000000200000000000200000,
100000000000200000100000000000200000000000100100,
100000000000200000100000000000200000000000200000,
100000000000000000100100100000100000000000200000,
100000000000000000100100100000100000000000200000,
100000000000200000100100100000100100100000000000,
300000300000000000100000100000200200200000200000,
#GOGOSTART
300000000000100000300000000000200000000000100000,
000000100000100000000000100000200200200000200000,
300000000000100000300000000000200000000000100000,
000000100000100000000000100000200200200000200000,
300000000000100000300000000000200000000000100000,
000000100000100000100000100000200200200000200000,
100000000000100000100000000000100000100000100000,
500000000000000000000000000000000008000000000000,
300000000100100000100000000000200200200000200000,
100000000100100000100000300000000000300000000000,
300000000100100000100000000000200200200000200000,
100000000100100000100000300000000000300000000000,
300000000100100000100000000000200200200000200000,
100000000100100000100000100000200200200000200000,
100000000100100000100000000000200000000000100000,
000000300000300000000000100100100000100100100000,
100100000100100000100100000100100000100000300000,
#GOGOEND
#END
COURSE:Normal
LEVEL:5
BALLOON:7
SCOREINIT:1100
SCOREDIFF:433
#START
000000000000000000000000000000000000000000000000,
100000000000000000100000000000100000000000000000,
000000000000000000000000200000000000200000000000,
100000000000000000100000000000100000000000000000,
000000000000000000000000200000000000200000000000,
100000000000000000100000000000100000000000000000,
000000000000000000000000200000000000200000000000,
100000000000100000000000100000000000100000000000,
100000100000100000000000000000000000300000000000,
300000000000000000000000000000000000000000000000,
100000000000100000100000000000000000200000000000,
100000000000100000100000000000000000200000000000,
100000000000100000100000000000000000000000100000,
100000000000000000100000100000000000000000100000,
100000000000000000000000000000000000200000100000,
100000000000000000100000100000000000000000100000,
100000000000000000000000000000000000200000100000,
100000000000000000100000100000000000000000100000,
100000000000000000000000000000000000200000100000,
100000000000000000000000000000100000100000100000,
000000100000000000100000100000000000000000000000,
100000000000000000100000000000000000000000200000,
100000000000000000100000000000000000000000000000,
100000000000000000100000000000000000000000200000,
100000000000000000100000000000200000000000000000,
100000000000000000100000000000000000000000200000,
100000000000000000100000000000000000000000000000,
100000000000000000100000100000000000000000200000,
100000000000000000100000000000200000000000000000,
300000300000000000000000000000000000000000000000,
#GOGOSTART
300000000000200000100000000000100000000000100000,
000000100000100000000000200000000000200000000000,
300000000000200000100000000000100000000000100000,
000000100000100000000000200000000000200000000000,
300000000000200000100000000000100000000000100000,
000000100000100000000000200000000000200000000000,
100000000000100000100000000000200000200000000000,
700000000000000000000000000000800000000000000000,
300000000000200000100000000000200000000000100000,
100000000000100000000000200000000000200000000000,
300000000000200000100000000000200000000000100000,
100000000000100000000000200000000000200000000000,
300000000000200000100000000000200000000000100000,
100000000000100000000000200000000000200000000000,
100000000000100000100000000000200000200000000000,
500000000000000000800000000000000000300000000000,
300000000000000000000000000000000000000000000000,
#GOGOEND
#END
COURSE:Easy
LEVEL:3
BALLOON:13
SCOREINIT:980
SCOREDIFF:650
#START
000000000000000000000000000000000000000000000000,
100000000000000000100000000000000000000000000000,
000000000000000000000000100000000000100000000000,
100000000000000000100000000000000000000000000000,
000000000000000000000000100000000000100000000000,
100000000000000000100000000000000000000000000000,
000000000000000000000000100000000000100000000000,
500000000000000000000000000000000000000000000000,
000000000000800000000000000000000000300000000000,
300000000000000000000000000000000000000000000000,
100000000000100000000000100000000000000000000000,
100000000000100000000000100000000000000000000000,
100000000000100000000000100000000000000000000000,
100000000000000000000000100000000000000000000000,
100000000000100000000000100000000000000000000000,
100000000000000000000000100000000000000000000000,
100000000000100000000000100000000000000000000000,
100000000000000000000000100000000000000000000000,
100000000000100000000000100000000000000000000000,
100000000000000000000000000000000000000000000000,
200000000000000000000000200000000000000000000000,
100000000000000000100000000000000000000000000000,
100000000000000000100000000000000000000000000000,
100000000000000000000000200000000000000000000000,
100000000000100000000000100000000000000000000000,
100000000000000000100000000000000000000000000000,
100000000000000000100000000000000000000000000000,
100000000000000000000000200000000000000000000000,
100000000000100000000000100000000000000000000000,
300000000000000000000000000000000000000000000000,
#GOGOSTART
300000000000000000300000000000000000000000000000,
000000000000000000000000200000000000200000000000,
300000000000000000300000000000000000000000000000,
000000000000000000000000200000000000200000000000,
300000000000000000300000000000000000000000000000,
000000000000000000000000200000000000200000000000,
700000000000000000000000000000000000000000800000,
000000000000000000000000000000000000000000000000,
300000000000000000300000000000000000000000000000,
100000000000100000000000200000000000000000000000,
300000000000000000300000000000000000000000000000,
100000000000100000000000200000000000000000000000,
300000000000000000300000000000000000000000000000,
100000000000100000000000100000000000100000000000,
500000000000000000000000000000000000000000000000,
000000000000800000000000000000000000300000000000,
3,
#GOGOEND
#END