Files
2023-06-15 19:15:39 -05:00

250 lines
9.8 KiB
Plaintext

//TJADB Project
TITLE:Hamtaro Tottokou Uta
TITLEJA:ハム太郎とっとこうた
SUBTITLE:--Ham-chanzu/Hamtaro Tottokou
SUBTITLEJA:とっとこハム太郎はむはむぱらだいちゅ!
BPM:140
WAVE:Hamtaro Tottokou Uta.ogg
OFFSET:-2.459
DEMOSTART:36.092
COURSE:Oni
LEVEL:5
#START
100000200200000200200000200000200000000000000000,
000000200200000200200000200000200000200000200000,
100000200200000200200000200000200000000000000000,
000000200200000200200000200000200000200000200000,
100000200200000200200000200000200000000000000000,
000000200200000200200000200000200000200000200000,
100000200000200000200000100000200000200000200000,
100000200000200000200000100000200000200000200000,
100000200200200000000000100000100000100000200000,
100000000000100000100000000000100000100000100000,
100000200200200000000000100000100000100000200000,
100000000000100000100000000000200200200000000000,
100000000000200000100000100000000000200000100000,
100000000000200000000000200200200000200000000000,
100000000000200000100000100000000000200000100000,
100000000000200000000000200200200000200200200000,
100000000000200000000000100000100000100000100000,
100000000000100000100000000000000000000000000000,
100000100100100000200000100000100100100000200000,
100000100100100000200000100000100100100000200000,
100000200200200000000000100000200000100000200000,
100000000000100000100000000000100000100000100000,
100000200200200000000000100000200000100000200000,
100000000000100000100000000000200200200000000000,
100000000000200000200000100000000000200000200000,
100000000000200000000000200200200000200000000000,
100000000000200000200000100000000000200000200000,
100000000000200000000000200200200000200000000000,
100000000000200000000000100000100000100000100000,
100000000000100000100000000000000000000000000000,
100000100100100000200000100000100100100000200000,
100000100100100000200000100000100100100000200000,
100000200200200000200000100000200200200000200000,
100000000000100000100000000000100000100000100000,
100000200200200000200000100000200200200000200000,
100000000000100000100000000000200200200000200000,
100000000000200000200000100000000000200000200000,
100000000000200000000000200200200000200000000000,
100000000000200000200000100000000000200000200000,
100000000000200000000000200200200000200000200000,
100000000000200000000000100100100000100000100000,
100000000000100000100000000000000000000000000000,
100000100100100000200200100000100100100000200200,
100000100100100000200200100000100100100000200000,
300000000000000000000000200000200000000000000000,
100000100100000100100000200000200000200000200000,
100000100100000100100000200000200000200000200000,
300000000000000000000000000000000000000000000000,
#END
COURSE:Hard
LEVEL:4
SCOREINIT:800
SCOREDIFF:180
#START
100000000000000000000000000000000000000000000000,
000000000000000000000000000000000000000000000000,
100000000000000000000000000000000000000000000000,
000000000000000000000000000000000000000000000000,
100000000000000000000000000000000000000000000000,
100000000000000000000000000000000000000000000000,
100000000000200000000000100000000000200000000000,
100000000000200000000000100000100000100000100000,
100000200200200000000000100000000000100000100000,
100000000000100000100000000000100000100000100000,
100000200200200000000000100000000000100000100000,
100000000000100000100000000000200200200000000000,
100000000000000000100000100000000000100000100000,
100000000000200000000000200200200000200000000000,
100000000000000000100000100000000000100000100000,
100000000000200000000000200200200000200000000000,
100000000000200000000000100000100000100000100000,
100000000000100000100000000000000000000000000000,
100000100100100000100000100000100100100000100000,
100000100100100000100000100000100100100000100000,
100000200200200000000000100000200000100000200000,
100000000000100000100000000000100000100000100000,
100000200200200000000000100000200000100000200000,
100000000000100000100000000000200200200000000000,
100000000000000000100000100000000000100000100000,
100000000000200000000000200200200000200000000000,
100000000000000000100000100000000000100000100000,
100000000000200000000000200200200000200000000000,
100000000000200000000000100000100000100000100000,
100000000000100000100000000000000000000000000000,
100000100100100000200000100000100100100000200000,
100000100100100000200000100000100100100000200000,
100000200200200000200000100000200200200000200000,
100000000000100000100000000000100000100000100000,
100000200200200000200000100000200200200000200000,
100000000000100000100000000000200200200000000000,
100000000000200000100000100000000000200000100000,
100000000000200000000000200200200000200000000000,
100000000000200000100000100000000000200000100000,
100000000000200000000000200200200000200000000000,
100000000000200000000000100100100000100000100000,
100000000000100000100000000000000000000000000000,
100000100100100000200000100000100100100000200000,
100000100100100000200000100000100100100000200000,
300000000000000000000000200000200000000000000000,
100000000000100000000000200000200000000000000000,
100000000000100000000000200000200000000000000000,
300000000000000000000000000000000000000000000000,
#END
COURSE:Normal
LEVEL:2
SCOREINIT:1290
SCOREDIFF:440
#START
100000000000000000000000000000000000000000000000,
000000000000000000000000000000000000000000000000,
100000000000000000000000000000000000000000000000,
000000000000000000000000000000000000000000000000,
100000000000000000000000000000000000000000000000,
000000000000000000000000000000000000000000000000,
100000000000200000000000100000000000200000000000,
100000000000000000000000000000100000000000100000,
100000000000000000000000100000000000100000000000,
100000000000100000100000000000100000100000000000,
100000000000000000000000100000000000100000000000,
100000000000100000100000000000000000000000000000,
100000000000000000100000100000000000100000000000,
500000000000000000000000800000000000000000000000,
100000000000000000100000100000000000100000000000,
500000000000000000000000800000000000000000000000,
100000000000000000000000100000000000100000000000,
100000000000100000100000000000000000000000000000,
100000100000100000000000100000100000100000000000,
100000100000100000000000100000100000100000000000,
100000000000000000000000100000000000100000000000,
100000000000100000100000000000100000100000000000,
100000000000000000000000100000000000100000000000,
100000000000100000100000000000000000000000000000,
100000000000000000100000100000000000100000000000,
500000000000000000000000800000000000000000000000,
100000000000000000100000100000000000100000000000,
500000000000000000000000800000000000000000000000,
100000000000000000000000100000000000100000000000,
100000000000100000100000000000000000000000000000,
100000100000100000000000100000100000100000000000,
100000100000100000000000100000100000100000000000,
100000000000000000000000100000000000100000000000,
100000000000100000100000000000100000100000000000,
100000000000000000000000100000000000100000000000,
100000000000100000100000000000000000000000000000,
100000000000000000100000100000000000100000000000,
500000000000000000000000800000000000000000000000,
100000000000000000100000100000000000100000000000,
500000000000000000000000800000000000000000000000,
100000000000000000000000100000000000100000000000,
100000000000100000100000000000000000000000000000,
100000100000100000000000100000100000100000000000,
100000100000100000000000100000100000100000000000,
300000000000000000000000000000000000000000000000,
#END
COURSE:Easy
LEVEL:2
SCOREINIT:1550
SCOREDIFF:480
#START
100000000000000000000000000000000000000000000000,
000000000000000000000000000000000000000000000000,
100000000000000000000000000000000000000000000000,
000000000000000000000000000000000000000000000000,
100000000000000000000000000000000000000000000000,
000000000000000000000000000000000000000000000000,
100000000000000000000000100000000000000000000000,
100000000000000000000000100000000000000000000000,
100000000000000000000000100000000000100000000000,
100000000000000000300000000000000000000000000000,
100000000000000000000000100000000000100000000000,
100000000000000000300000000000000000000000000000,
100000000000000000000000100000000000100000000000,
500000000000000000000000800000000000000000000000,
100000000000000000000000100000000000100000000000,
500000000000000000000000800000000000000000000000,
100000000000000000000000100000000000100000000000,
100000000000000000300000000000000000000000000000,
100000000000000000000000200000000000000000000000,
100000000000000000000000200000000000000000000000,
100000000000000000000000100000000000100000000000,
100000000000000000300000000000000000000000000000,
100000000000000000000000100000000000100000000000,
100000000000000000300000000000000000000000000000,
100000000000000000000000100000000000100000000000,
500000000000000000000000800000000000000000000000,
100000000000000000000000100000000000100000000000,
500000000000000000000000800000000000000000000000,
100000000000000000000000100000000000100000000000,
100000000000000000300000000000000000000000000000,
100000000000100000000000200000000000000000000000,
100000000000100000000000200000000000000000000000,
100000000000000000000000100000000000100000000000,
100000000000000000300000000000000000000000000000,
100000000000000000000000100000000000100000000000,
100000000000000000300000000000000000000000000000,
100000000000000000000000100000000000100000000000,
500000000000000000000000800000000000000000000000,
100000000000000000000000100000000000100000000000,
500000000000000000000000800000000000000000000000,
100000000000000000000000100000000000100000000000,
100000000000000000300000000000000000000000000000,
100000000000100000000000200000000000000000000000,
100000000000100000000000200000000000000000000000,
300000000000000000000000000000000000000000000000,
#END