Files
2023-01-17 00:45:18 -05:00

468 lines
5.3 KiB
Plaintext

//TJADB Project
TITLE:Hard Knock Days
TITLEJA:Hard Knock Days
SUBTITLE:--GENERATIONS (EXILE TRIBE)/ONE PIECE
SUBTITLEJA:「ワンピース」より
BPM:184
WAVE:Hard Knock Days.ogg
OFFSET:-1.856
DEMOSTART:3.160
COURSE:Oni
LEVEL:6
BALLOON:5,6,4,16,5,6,5,6
SCOREINIT:580
SCOREDIFF:145
#START
1020201022222000,
#GOGOSTART
11202011,
20201121,
10110121,
01101000,
11202011,
20201120,
30030300,
30030333,
11202011,
20201121,
10120104,
000000400000000000300000000000600000000008000000,
70080111,
22121217,
00080121,
2002002010101110,
10122210,
12221021,
10212010,
2010200020222020,
#GOGOEND
11120010,
11120010,
10222120,
20222120,
10222120,
22212011,
10222120,
10222120,
40040440,
01122010,
01122012,
01122010,
40040440,
02211012,
02211012,
0020201010222220,
11120011,
12011021,
11120050,
000008000000000000100000100000100000200000000000,
22210022,
21002210,
10110150,
000000000008000000000000100100100100200200200000,
11120211,
12011120,
10120170,
08022210,
10211021,
10211020,
7,
0000800022222000,
#GOGOSTART
11202011,
#GOGOEND
20201121,
10220121,
01101000,
11202011,
20201120,
30030300,
30030333,
11202011,
20201121,
10120104,
#GOGOSTART
000000400000000000300000000000600000000008000000,
70080111,
22121217,
00080121,
#GOGOEND
2002002010104000,
11202011,
20201121,
10220121,
01101000,
11202011,
20201120,
30030300,
30030333,
11202011,
20201121,
10120104,
#GOGOSTART
000000400000000000300000000000600000000008000000,
70080111,
22121217,
00080121,
2002002010101050,
,
000000000000000000000000000000000000000000000008,
#GOGOEND
#END
COURSE:Hard
LEVEL:5
BALLOON:4,5,3,4,14,4,5,4,5
SCOREINIT:500
SCOREDIFF:125
#START
,
#GOGOSTART
11102011,
10201111,
10110101,
01101000,
11102011,
10201110,
30030300,
30030333,
11102011,
10201111,
10110104,
000000400000000000300000000000600000000008000000,
70080111,
21010107,
00080111,
2002002010102000,
10122210,
12221011,
10212010,
21202120,
#GOGOEND
11120010,
11120010,
10222120,
10222120,
10222120,
22212010,
10222120,
10222120,
40040440,
02211012,
02211012,
02211010,
40040440,
02211012,
02211012,
02211010,
11120011,
12011021,
11120050,
000008000000000000100000100000100000200000000000,
22210022,
21002210,
10110150,
000000000008000000000000700000000000800000000000,
11120211,
12011120,
10120170,
80011120,
10211021,
10219000,
00000900,
8,
#GOGOSTART
11102011,
#GOGOEND
10201111,
10110101,
01101000,
11102011,
10201110,
30030300,
30030333,
11102011,
10201111,
10110104,
#GOGOSTART
000000400000000000300000000000600000000008000000,
70080111,
21010107,
00080111,
#GOGOEND
2002002000104000,
11102011,
10201111,
10110101,
01101000,
11102011,
10201110,
30030300,
30030333,
11102011,
10201111,
10110104,
#GOGOSTART
000000400000000000300000000000600000000008000000,
70080111,
21010107,
00080111,
2002002000100050,
,
000000000000000000000000000000000000000000000008,
#GOGOEND
#END
COURSE:Normal
LEVEL:4
BALLOON:4,2,3,12,4,4
SCOREINIT:730
SCOREDIFF:215
#START
#SCROLL 0.8
,
#GOGOSTART
1121,
1211,
11,
1110,
1121,
1211,
30030000,
30030000,
1121,
1211,
10001005,
000000000000000000000000000000000008000000000000,
1121,
10102007,
08,
30000005,
,
000000000000000000000000000000000000000000000008,
,
,
#GOGOEND
1100,
1101,
0220,
2202,
0110,
1101,
0220,
2202,
40040040,
0110,
0110,
1110,
40040040,
0110,
1110,
0220,
1101,
1011,
1105,
000000000008000000000000000000000000000000000000,
2202,
2022,
2005,
000000000008000000000000700000000000800000000000,
1101,
1011,
1007,
0811,
10011001,
10019000,
00000900,
8,
#GOGOSTART
1121,
1211,
11,
1110,
1121,
1211,
30030000,
30030000,
1121,
1211,
10001005,
000000000000000000000000000000000008000000000000,
1121,
10102007,
08,
3004,
1121,
1211,
11,
1110,
1121,
1211,
30030000,
30030000,
1121,
1211,
10001005,
000000000000000000000000000000000008000000000000,
1121,
10102007,
08,
30000005,
,
000000000000000000000000000000000000000000000008,
#GOGOEND
#END
COURSE:Easy
LEVEL:3
BALLOON:3,6,3,3
SCOREINIT:710
SCOREDIFF:273
#START
#SCROLL 0.75
,
#GOGOSTART
11,
1110,
11,
1111,
11,
1110,
5,
000000000008000000000000000000300000000000000000,
11,
1110,
10000005,
000000000000000000000000000008000000000000000000,
12,
10002007,
08,
30000005,
,
000000000000000000000000000000000000000000000008,
,
,
#GOGOEND
11,
1,
22,
2,
22,
2,
11,
1,
30030030,
,
10001005,
000000000000000000000000000008000000000000000000,
30030030,
,
10001005,
000000000000000000000000000008000000000000000000,
1001,
0011,
1005,
000000000008000000000000000000000000000000000000,
2002,
0022,
2005,
000000000000000008000000000000000000000000000000,
1001,
0011,
1005,
000008000000000000000000000000000000000000000000,
11,
19,
00000900,
8,
#GOGOSTART
11,
1110,
11,
1111,
11,
1110,
30030000,
30030000,
11,
1110,
10000005,
,
000000000000000008000000000000000000000000000000,
10000007,
08,
1003,
11,
1110,
11,
1111,
11,
1110,
5,
000000000008000000000000000000300000000000000000,
11,
1110,
10000005,
000000000000000000000000000008000000000000000000,
12,
10002007,
08,
30000005,
,
000000000000000000000000000000000000000000000008,
#GOGOEND
#END