Files
2023-01-17 00:45:18 -05:00

329 lines
8.2 KiB
Plaintext

//TJADB Project
TITLE:Hug Shichao
TITLEJA:ハグしちゃお
SUBTITLE:--Ryudo Uzaki feat. Rimi Natsukawa/Doraemon
SUBTITLEJA:「ドラえもん」より
BPM:136
WAVE:Hug Shichao.ogg
OFFSET:-2.015
DEMOSTART:40.394
COURSE:Oni
LEVEL:7
BALLOON:13,13,13,10,10,10
SCOREINIT:860
SCOREDIFF:220
#START
1011200022111020,
0020001022112010,
0000200020221020,
0010112211221122,
#SECTION
#BRANCHSTART p,75,90
#N
2000101120001020,
2000202210002010,
1000101120001011,
22222100,
1000101120001020,
2000202210002010,
1000101120001011,
22221111,
10070000,
0000000800000000,
#E
2000101120001120,
2000202210002210,
1000101120001120,
2022202020100000,
1000101120001120,
2000202210002210,
1000101120001120,
2022202010111010,
10070000,
0000000800000000,
#M
2000101120101120,
2000202210202210,
1000101120101120,
2022202020100000,
1000101120101120,
2000202210202210,
1000101120101120,
2022202010111010,
10070000,
0000000800000000,
#SECTION
#BRANCHSTART p,75,90
#N
1010201011201000,
1010201011201000,
1010201011201000,
1010201022202000,
1011201010201000,
1011201010201000,
1011201010202010,
0010201022102000,
1010201011201000,
1010201011201000,
1010201011201000,
1010201022202000,
500000000000000000000000000000000008000000000000,
11211221,
7008,
2020101020111010,
#E
1011201012021000,
1011201012021000,
1011201012021000,
1011201022022000,
1011201012021000,
1011201012021000,
1011201022022010,
0011201022102000,
1011201012021000,
1011201012021000,
1011201012021000,
1011201022022000,
500000000000000000000000000000000008000000000000,
1011201012022010,
7008,
2020101022111010,
#M
1011201011221000,
1011201011221000,
1011201011221000,
1011201022112000,
1011201011221000,
1011201011221000,
1011201022202010,
0011201011212000,
1011201011221000,
1011201011221000,
1011201011221000,
1011201022112000,
500000000000000000000000000000000008000000000000,
1011221110112211,
7008,
2020101022111010,
#GOGOSTART
#SECTION
#BRANCHSTART p,75,90
#N
1000101110112000,
1000101110112000,
1011201020102000,
30303222,
1000101110112000,
1000101110112000,
1011201020102000,
30303222,
#GOGOEND
3,
#E
1000101110112020,
1000101110112020,
1011201022102000,
30303222,
1000101110112020,
1000101110112020,
1011201022102000,
30303222,
#GOGOEND
3,
#M
1000111110112020,
1000111110112020,
1011221010112000,
33333222,
1000111110112020,
1000111110112020,
1011221010112000,
3030303011221122,
#GOGOEND
1,
#BRANCHEND
#END
COURSE:Hard
LEVEL:4
BALLOON:8,10,8
SCOREINIT:1150
SCOREDIFF:300
#START
100000100000100000000000100000000000100000100000,
000000200000000000200000200000000000200000000000,
000000000000200000000000200000200200200000200000,
000000700000000000000000000000000000000800000000,
000000000000100000100000100000000000100000100000,
000000000000200000200000200000000000200000200000,
000000000000100000100000100000000000100000100000,
200000000000200200200000200000000000000000000000,
100000000000100000100000100000000000100000100000,
000000000000200000200000200000000000200000200000,
000000000000100000100000100000000000100000100000,
200000200200200000200000100000100000100000000000,
100000000000000000700000000000000000000000000000,
000000000000000000800000000000000000000000000000,
100000100100100000000000100000000000100000100000,
000000100100100000000000100000000000100000100000,
000000200200200000000000200000000000200000200000,
000000200200200000000000200000000000200000200000,
000000100100100000000000100000000000100000100000,
000000100100100000000000100000000000100000100000,
000000200200200000000000100000100000100000100000,
000000500000000000000000000000000800000000000000,
100000100100100000000000100000000000100000100000,
000000100100100000000000100000000000100000100000,
000000200200200000000000200000000000200000200000,
000000200200200000000000200000000000200000200000,
500000000000000000000000000000000800000000000000,
000000100000100000100000100000100000100000000000,
9008,
,
#GOGOSTART
100000000000100000100100100000100000200000000000,
100000000000100000100100100000100000200000000000,
100000100000100000000000200000200000200000000000,
300000000000300000000000400000000000000000000000,
100000000000100000100100100000100000200000000000,
100000000000100000100100100000100000200000000000,
100000100000100000100000200000200000200000200000,
300000000000300000000000400000000000000000000000,
#GOGOEND
#END
COURSE:Normal
LEVEL:2
BALLOON:6,8,5,8
SCOREINIT:1470
SCOREDIFF:620
#START
100000000000000000000000100000000000100000000000,
000000000000000000000000200000000000200000000000,
000000000000100000000000100000000000000000700000,
000000000000000000000000000000800000000000000000,
000000000000100000000000100000000000100000000000,
000000000000200000000000200000000000200000000000,
000000000000100000000000100000000000100000000000,
500000000000000000000000800000000000000000000000,
000000000000100000000000100000000000100000000000,
000000000000200000000000200000000000200000000000,
000000000000100000000000100000000000100000000000,
500000000000000000000000000000800000000000000000,
100000000000000000700000000000000000000000000000,
000000000000000000800000000000000000000000000000,
500000000000000000000000800000000000000000000000,
100000000000100000000000100000000000000000000000,
200000000000200000000000200000000000000000000000,
100000000000100000000000100000000000000000000000,
500000000000000000000000800000000000000000000000,
100000000000100000000000100000000000000000000000,
200000000000200000000000200000000000000000000000,
700000000000000000000000000000800000000000000000,
500000000000000000000000800000000000000000000000,
100000000000100000000000100000000000000000000000,
200000000000200000000000200000000000000000000000,
100000000000100000000000100000000000000000000000,
500000000000000000000000800000000000000000000000,
100000000000100000000000100000000000000000000000,
9,
8,
#GOGOSTART
300000000000300000000000300000000000000000000000,
400000000000400000000000400000000000000000000000,
100000000000000000000000200000000000000000000000,
300000000000300000000000300000000000000000000000,
300000000000300000000000300000000000000000000000,
400000000000400000000000400000000000000000000000,
100000000000000000000000200000000000000000000000,
300000000000300000000000300000000000000000000000,
#GOGOEND
#END
COURSE:Easy
LEVEL:2
BALLOON:4,4,5
SCOREINIT:1410
SCOREDIFF:970
#START
100000000000000000000000100000000000000000000000,
500000000000000000000800000000000000000000000000,
100000000000000000000000100000000000000000000000,
700000000000000000000000000000000800000000000000,
000000000000000000000000300000000000000000000000,
000000000000000000000000400000000000000000000000,
000000000000000000000000300000000000000000000000,
500000000000000000000000000000000800000000000000,
000000000000000000000000300000000000000000000000,
000000000000000000000000400000000000000000000000,
000000000000000000000000300000000000000000000000,
500000000000000000000000000000000800000000000000,
100000000000000000700000000000000000000000000000,
000000000000000000000800000000000000000000000000,
500000000000000000000800000000000000000000000000,
100000000000000000000000100000000000000000000000,
200000000000000000000000200000000000000000000000,
200000000000000000000000000000000000100000000000,
500000000000000000000800000000000000000000000000,
100000000000000000000000100000000000000000000000,
200000000000000000000000200000000000000000000000,
100000000000000000000000000000000000100000000000,
500000000000000000000800000000000000000000000000,
100000000000000000000000100000000000000000000000,
200000000000000000000000200000000000000000000000,
200000000000000000000000000000000000100000000000,
500000000000000000000800000000000000000000000000,
100000000000000000000000200000000000000000000000,
9,
8,
#GOGOSTART
300000000000000000000000300000000000000000000000,
300000000000000000000000300000000000000000000000,
100000000000000000000000100000000000000000000000,
300000000000300000000000300000000000000000000000,
300000000000000000000000300000000000000000000000,
300000000000000000000000300000000000000000000000,
100000000000000000000000100000000000000000000000,
300000000000300000000000300000000000000000000000,
#GOGOEND
#END