forked from ESE/ESE
360 lines
8.0 KiB
Plaintext
360 lines
8.0 KiB
Plaintext
//TJADB Project
|
|
TITLE:Hurricaneger Sanjou!
|
|
TITLEJA:ハリケンジャー参上!
|
|
SUBTITLE:--Hideaki Takatori/Ninpuu Sentai Hurricanger
|
|
BPM:148
|
|
WAVE:Hurricaneger Sanjou!.ogg
|
|
OFFSET:-1.928
|
|
DEMOSTART:52.113
|
|
|
|
COURSE:Oni
|
|
LEVEL:5
|
|
BALLOON:16
|
|
|
|
|
|
#START
|
|
|
|
|
|
000000000000000000000000000000000000200000000000,
|
|
000000000000000000000000000000000000000000000000,
|
|
200200000200200000200000000000000000000000000000,
|
|
000000000000000000000000000000000000000000000000,
|
|
100100100000200000000000100100100000200000000000,
|
|
100100100000100000200000100000200000100000200000,
|
|
100100100000200000000000000000000000000000000000,
|
|
100100100000200000200000100100100000200000200000,
|
|
000000000000000000000000000000000000000000000000,
|
|
100000100000200000100000100000200000100000100000,
|
|
200000200000200000000000100000000000100000000000,
|
|
300000000000000000000000000000000000000000000000,
|
|
000000000000000000000000000000000000000000000000,
|
|
100000100100100000200000100000200000100000200000,
|
|
100000100100100000200000100000000200000000000000,
|
|
100000100100100000200000100000100100100000200000,
|
|
000000200200200200200000200000000200000000000000,
|
|
100000100100100000100100100000200200200000200000,
|
|
100000100100100000100100100000200200200000200000,
|
|
100000100100100000200200100000200200100000100000,
|
|
000000200000000000200000000000000000000000000000,
|
|
100000000100100000100000100000200000100100200000,
|
|
100000000100100000100000100000200000100100200000,
|
|
100000000100100000100000100000200000100100200000,
|
|
100000200000100000200000100000200000100000200000,
|
|
500000000000000000000000000008000000000000000000,
|
|
100100100000200000200000100100100000200000200000,
|
|
100000100000200000100100000000200000200000200000,
|
|
100100100000200000200000100100100000200000200000,
|
|
100100100000200000100000100000200000200000000000,
|
|
200200000200200000200200000200200000200000200000,
|
|
100100000100100000200000100100100000200000200000,
|
|
100100100000200000000000200000200000200000000000,
|
|
100100000100100000200000100100000100100000200000,
|
|
000000000000000000000000200000200000200000200000,
|
|
100000100000200000100000100000200000100000100000,
|
|
200000100000100000200000100000000000100000000000,
|
|
300000000000000000300000000000000000000000000000,
|
|
000000000000000000000000000000000000000000000000,
|
|
100100000100100000200000100100100000200000200000,
|
|
100100100000200000000000200000200000200000200000,
|
|
100100000100100000200000100100000100100000200000,
|
|
000000000000000000000000200000200000200000200000,
|
|
100000100000200000100000100000200000100000100000,
|
|
200000200000200000000000100000000000100000000000,
|
|
300000000000000000000000000000000000000000000000,
|
|
100100100000200000200000100100100000200000200000,
|
|
000000000000100100100000100000100000000000300000,
|
|
000000000000000000000000000000000000000000000000,
|
|
000000100100100000200000100000000000000000700000,
|
|
000000000000000000000000000000000000000000000008,
|
|
|
|
|
|
#END
|
|
|
|
|
|
COURSE:Hard
|
|
LEVEL:4
|
|
BALLOON:17
|
|
SCOREINIT:680
|
|
SCOREDIFF:320
|
|
|
|
|
|
#START
|
|
|
|
|
|
0002,
|
|
,
|
|
2202202000000000,
|
|
,
|
|
1110200011102000,
|
|
1110200010002000,
|
|
1110200000000000,
|
|
1110200011102000,
|
|
,
|
|
11211211,
|
|
2011,
|
|
3,
|
|
,
|
|
|
|
#BRANCHSTART p,75,90
|
|
#N
|
|
1011100010000000,
|
|
1011100010000000,
|
|
1011100010000000,
|
|
0022022020000000,
|
|
1011100010000000,
|
|
1011100010000000,
|
|
1011100010000000,
|
|
02020000,
|
|
|
|
#E
|
|
1011100010001000,
|
|
1011100010001000,
|
|
1011100010111000,
|
|
0022022020000000,
|
|
1011100010001000,
|
|
1011100010001000,
|
|
1011100010111000,
|
|
02020000,
|
|
|
|
#M
|
|
1011102010201020,
|
|
1011102010020000,
|
|
1011102010111020,
|
|
0022222020020000,
|
|
1011101110222020,
|
|
1011101110222020,
|
|
1011102210221010,
|
|
02020000,
|
|
|
|
#BRANCHSTART p,75,90
|
|
#N
|
|
1001001000202000,
|
|
1001001000202000,
|
|
1001001000202000,
|
|
1111,
|
|
500000000000000000000000000008000000000000000000,
|
|
1110000011100000,
|
|
11011000,
|
|
1110000011100000,
|
|
11011000,
|
|
2202202202202000,
|
|
1101100010002000,
|
|
1200,
|
|
1101100010002020,
|
|
,
|
|
11122211,
|
|
12221010,
|
|
30030000,
|
|
,
|
|
1101100010002000,
|
|
1200,
|
|
1101100010002020,
|
|
,
|
|
11122211,
|
|
1011,
|
|
3,
|
|
1110200011102000,
|
|
0000111010100030,
|
|
,
|
|
0011101110000030,
|
|
,
|
|
|
|
#E
|
|
1001101000101020,
|
|
1001101000101020,
|
|
1001101000101020,
|
|
1111,
|
|
500000000000000000000000000008000000000000000000,
|
|
1110002011100020,
|
|
1010201100002000,
|
|
1110002011100020,
|
|
11211020,
|
|
2202202202202000,
|
|
1101102011102000,
|
|
1110200000000000,
|
|
1101102011011020,
|
|
,
|
|
11211211,
|
|
21121010,
|
|
30030000,
|
|
,
|
|
1101102011102000,
|
|
1110200000000000,
|
|
1101102011011020,
|
|
,
|
|
11211211,
|
|
2011,
|
|
3,
|
|
1110200011102000,
|
|
0000111010100030,
|
|
,
|
|
0011102010000030,
|
|
,
|
|
|
|
#M
|
|
1001101010201120,
|
|
1001101010201120,
|
|
1001101010201120,
|
|
12121212,
|
|
500000000000000000000000000008000000000000000000,
|
|
1110202011102020,
|
|
1010201100202020,
|
|
1110202011102020,
|
|
1110201010202000,
|
|
2202202202202020,
|
|
1101102011102020,
|
|
1110200020202000,
|
|
1101102011011020,
|
|
00002222,
|
|
11211211,
|
|
21121010,
|
|
30030000,
|
|
,
|
|
1101102011102020,
|
|
1110200020202020,
|
|
1101102011011020,
|
|
00002222,
|
|
11211211,
|
|
22201010,
|
|
3,
|
|
1110202011102020,
|
|
0000111010100030,
|
|
,
|
|
0011102010000070,
|
|
000000000000000000000000000000000000000000000008,
|
|
|
|
#BRANCHEND
|
|
|
|
|
|
#END
|
|
|
|
|
|
COURSE:Normal
|
|
LEVEL:5
|
|
SCOREINIT:1560
|
|
SCOREDIFF:540
|
|
|
|
|
|
#START
|
|
|
|
|
|
0002,
|
|
,
|
|
2,
|
|
2,
|
|
2,
|
|
1011,
|
|
1,
|
|
1011,
|
|
1,
|
|
11011010,
|
|
1011,
|
|
3,
|
|
,
|
|
11,
|
|
1110,
|
|
11,
|
|
3,
|
|
11,
|
|
1110,
|
|
11,
|
|
30000110,
|
|
10001011,
|
|
00000110,
|
|
11,
|
|
10110000,
|
|
500000000000000000000008000000000000000000000000,
|
|
11021102,
|
|
10110000,
|
|
11021102,
|
|
11011000,
|
|
20020020,
|
|
1211,
|
|
2200,
|
|
1211,
|
|
2,
|
|
11011011,
|
|
01101010,
|
|
30030000,
|
|
,
|
|
1211,
|
|
2200,
|
|
1211,
|
|
2,
|
|
11011010,
|
|
1011,
|
|
3,
|
|
1111,
|
|
00111003,
|
|
,
|
|
01111003,
|
|
|
|
|
|
#END
|
|
|
|
|
|
COURSE:Easy
|
|
LEVEL:2
|
|
SCOREINIT:1680
|
|
SCOREDIFF:930
|
|
|
|
|
|
#START
|
|
|
|
|
|
000000000000000000000000000000000000000000000000,
|
|
000000000000000000000000000000000000000000000000,
|
|
100000000000000000000000000000000000000000000000,
|
|
100000000000000000000000000000000000000000000000,
|
|
100000000000000000000000000000000000000000000000,
|
|
100000000000000000000000100000000000000000000000,
|
|
100000000000100000000000000000000000000000000000,
|
|
100000000000000000000000100000000000000000000000,
|
|
100000000000100000000000000000000000000000000000,
|
|
100000000000000000000000100000000000000000000000,
|
|
100000000000000000000000000000000000000000000000,
|
|
300000000000000000000000000000000000000000000000,
|
|
000000000000000000000000000000000000000000000000,
|
|
100000000000000000000000100000000000000000000000,
|
|
100000000000100000000000100000000000000000000000,
|
|
100000000000000000000000100000000000000000000000,
|
|
300000000000000000000000000000000000000000000000,
|
|
100000000000000000000000100000000000000000000000,
|
|
100000000000100000000000100000000000000000000000,
|
|
100000000000000000000000100000000000000000000000,
|
|
300000000000000000000000000000000000000000000000,
|
|
100000000000100000000000100000000000000000000000,
|
|
200000000000000000000000000000000000000000000000,
|
|
100000000000100000000000100000000000000000000000,
|
|
200000000000000000000000000000000000000000000000,
|
|
500000000000000000000000000000000000800000000000,
|
|
000000000000000000000000200000000000000000000000,
|
|
100000000000100000000000100000000000000000000000,
|
|
000000000000000000000000200000000000000000000000,
|
|
100000000000100000000000100000000000000000000000,
|
|
000000000000000000000000000000000000000000000000,
|
|
100000000000000000000000100000000000100000000000,
|
|
200000000000000000000000000000000000000000000000,
|
|
100000000000000000000000100000000000100000000000,
|
|
200000000000000000000000000000000000000000000000,
|
|
100000000000000000000000200000000000000000000000,
|
|
100000000000000000000000200000000000000000000000,
|
|
300000000000000000000000000000000000000000000000,
|
|
000000000000000000000000000000000000000000000000,
|
|
100000000000000000000000100000000000100000000000,
|
|
200000000000000000000000000000000000000000000000,
|
|
100000000000000000000000100000000000100000000000,
|
|
200000000000000000000000000000000000000000000000,
|
|
100000000000000000000000200000000000000000000000,
|
|
100000000000000000000000000000000000000000000000,
|
|
300000000000000000000000000000000000000000000000,
|
|
100000000000100000000000100000000000000000000000,
|
|
100000000000100000000000100000000000000000000000,
|
|
300000000000000000000000000000000000000000000000,
|
|
000000000000000000000000100000000000000000000000,
|
|
500000000000000000000000000000000000000000000008,
|
|
|
|
|
|
#END
|
|
|