Files
2023-06-15 19:15:39 -05:00

549 lines
17 KiB
Plaintext
Raw Permalink Blame History

This file contains ambiguous Unicode characters
This file contains Unicode characters that might be confused with other characters. If you think that this is intentional, you can safely ignore this warning. Use the Escape button to reveal them.
//TJADB Project
TITLE:INSIDE IDENTITY
TITLEJA:INSIDE IDENTITY
SUBTITLE:--Black Raison d’etre/Love, Chunibyo & Other Delusions
SUBTITLEJA:「中二病でも恋がしたい!」より
BPM:186
WAVE:INSIDE IDENTITY.ogg
OFFSET:-1.503
DEMOSTART:58.882
COURSE:Oni
LEVEL:8
BALLOON:6
SCOREINIT:610
SCOREDIFF:168
#START
000000000000000000000000000000000000000000000000,
#GOGOSTART
#BPMCHANGE 186.98
#SCROLL 0.99
300000000000000000300000000000000000400000000000,
000000400000000000000000300000000000300000000000,
#BPMCHANGE 185.03
#SCROLL 1.01
300000300000300000300000000000400000000000600000,
000000000000000000000000000000000008000000000000,
#GOGOEND
#BPMCHANGE 186
#SCROLL 1
100000200200200000100000200200200000100000200200,
200000100000200200200000100000200200100000200000,
100000100100200000200100100000100000000000100000,
000000200000100000100000200000000000400000000000,
100000200000100100100000200000100000000000100000,
000000100000200200200000100000200200100000200000,
100000200200200000100000200200200000100000200200,
200000100000200200200000100100200000000000000000,
100000000000100000100000000000100000200000100000,
000000100000200000200000100000000000200000000000,
100000000000100000100000000000100000200000100000,
000000100000200000200000100000000000000000000000,
100000000000100000100000000000100000200000100000,
000000100000200000200000100000000000200000000000,
300000100100100000400000200200200000300000100100,
100000400000200200200000300000300000000000000000,
100000000000100000100000000000100000200000100000,
000000100000200000200000100000000000200000000000,
100000000000100000100000000000100000200000100000,
000000100000200000000000200000000000000000000000,
100000000000100000100000000000100000200000100000,
000000100000200000200000100000100100200200100100,
100000100100200000200200100000100100200000200200,
100000100100200000200200100000400000000000300000,
000000100000200000000000100000100000200000100000,
#BPMCHANGE 187.58
#SCROLL 0.99
000000100000200000000000100000100000200000000000,
#BPMCHANGE 182.73
#SCROLL 1.02
300000100100100000400000200200200000500000000000,
#BPMCHANGE 189.22
#SCROLL 0.98
000000000008000000000000400000400000000000300000,
#BPMCHANGE 184.6
#SCROLL 1.01
000000100000200000000000100000100000200000000000,
#BPMCHANGE 186
#SCROLL 1
100000100000200000200000100000100000200000000000,
100100100100100000000000200200200200200000000000,
100100200000200100100000000000300000000000300000,
000000100000200000000000100000100000200000100000,
000000100000200000000000100000100000200000000000,
300000100100100000400000200200200000500000000000,
000000000008000000000000300000000000300000000000,
100000000000200000000000100000100000200000100000,
000000100000200000100000000000100000200000000000,
300000300000300000300000000000300000300000300000,
#BPMCHANGE 188.56
#SCROLL 0.99
300000000000000000100100200000400000000000300000,
#GOGOSTART
#BPMCHANGE 183.51
#SCROLL 1.01
000000100000200000100100100000000000200000100000,
#BPMCHANGE 186.58
#SCROLL 1
000000100000200000100100100000000000200000100100,
100000000000200000100100200000000000200000100100,
100000000000200000100100200000000000200000000000,
#BPMCHANGE 186
100100100000200000000000100200100000200000000000,
#BPMCHANGE 184.64
#SCROLL 1.01
100100100000200000200000000000100000200200100000,
#BPMCHANGE 186.02
#SCROLL 1
100000000000200200100000000000200200100000500000,
#BPMCHANGE 187.93
#SCROLL 0.99
000000000008000000000000300000300000000000300000,
#BPMCHANGE 183.73
#SCROLL 1.01
000000100000200000100100100000000000200000100000,
#BPMCHANGE 186
#SCROLL 1
000000100000200000100100100000000000200000100100,
100000000000200000100100200000000000200000100100,
100000000000200000100100200000000000200000000000,
100100100000200000000000100200100000200000000000,
#BPMCHANGE 190.64
#SCROLL 0.98
100100100000200000200000000000100000200200100100,
#BPMCHANGE 181.93
#SCROLL 1.02
100000000000200200100000000000200200500000000000,
#BPMCHANGE 185.63
#SCROLL 1
000000000000000008000000700000000000000000800000,
#BPMCHANGE 186
300000100100100000400000200200200000300000100100,
100000400000200200200000300000000000300000000000,
300000100100100000400000200200200000300000100100,
100000400000200200200000100100200000200100100000,
300000100100100000400000200200200000300000100100,
#BPMCHANGE 187.81
#SCROLL 0.99
100000400000200200200000300000000000300000000000,
#BPMCHANGE 189
#SCROLL 1
300000300000300000300000000000400000000000400000,
#GOGOEND
#END
COURSE:Hard
LEVEL:5
SCOREINIT:690
SCOREDIFF:210
#START
000000000000000000000000000000000000000000000000,
#GOGOSTART
#BPMCHANGE 186.98
#SCROLL 0.99
300000000000000000300000000000000000300000000000,
000000300000000000000000300000000000300000000000,
#BPMCHANGE 185.03
#SCROLL 1.01
300000300000300000300000000000400000000000600000,
000000000000000000000000000000000008000000000000,
#GOGOEND
#BPMCHANGE 186
#SCROLL 1
100000000000100000100000000000100000100000000000,
100000100000000000100000100000000000200000000000,
100000000000100000100000000000200000000000100000,
000000100000100000000000200000000000200000000000,
100000100000200000000000100000200000000000100000,
000000100000200000000000100000100000200000000000,
100000000000100000100000000000100000100000000000,
100000100000000000100000100000200000000000000000,
100000000000100000000000100000000000100000100000,
000000200000200000000000200000000000200000000000,
100000000000100000000000100000000000100000100000,
000000200000200000000000200000000000000000000000,
100000000000100000000000100000000000100000100000,
000000200000200000000000200000000000200000000000,
300000000000300000300000000000300000300000000000,
600000000000000000000000000000000800000000000000,
100000000000100000000000100000000000100000100000,
000000200000200000000000200000000000200000000000,
100000000000100000000000100000000000100000100000,
000000200000200000000000200000000000000000000000,
100000000000100000000000100000000000100000100000,
000000200000200000000000200000000000200000000000,
100000000000200000000000100000100000200000000000,
100000000000200000000000400000400000000000300000,
000000100000200000000000100000000000200000100000,
#BPMCHANGE 187.58
#SCROLL 0.99
000000100000200000000000100000100000200000000000,
#BPMCHANGE 182.73
#SCROLL 1.02
100000000000000000100000000000000000500000000000,
#BPMCHANGE 189.22
#SCROLL 0.98
000000000008000000000000400000400000000000300000,
#BPMCHANGE 184.6
#SCROLL 1.01
000000100000200000000000100000100000200000000000,
#BPMCHANGE 186
#SCROLL 1
100000000000200000000000100000100000200000000000,
500000000008000000000000500000000008000000000000,
200000000000000000000000000000400000000000300000,
000000100000200000000000100000000000200000100000,
000000100000200000000000100000100000200000000000,
100000000000000000100000000000000000500000000000,
000000000008000000000000100000000000100000000000,
100000000000200000000000100000000000200000100000,
000000100000200000100000000000100000200000000000,
300000300000300000300000000000300000300000300000,
#BPMCHANGE 188.56
#SCROLL 0.99
300000000000000000000000300000300000000000300000,
#GOGOSTART
#BPMCHANGE 183.51
#SCROLL 1.01
000000100000200000000000100000000000200000100000,
#BPMCHANGE 186.58
#SCROLL 1
000000100000200000000000100000100000200000000000,
100000000000200000000000100000100000200000000000,
100000100000200000000000100000000000200000000000,
#BPMCHANGE 186
100000000000000000000000100100100000200000000000,
#BPMCHANGE 184.64
#SCROLL 1.01
100000000000000000000000100100100000200000000000,
#BPMCHANGE 186.02
#SCROLL 1
500000000000000000000000000000000000000000000008,
#BPMCHANGE 187.93
#SCROLL 0.99
000000000000000000000000300000300000000000300000,
#BPMCHANGE 183.73
#SCROLL 1.01
000000100000200000000000100000000000200000100000,
#BPMCHANGE 186
#SCROLL 1
000000100000200000000000100000100000200000000000,
100000000000200000000000100000100000200000000000,
100000100000200000000000100000000000200000000000,
100000000000000000000000100100100000200000000000,
#BPMCHANGE 190.64
#SCROLL 0.98
100000000000000000000000100100100000200000000000,
#BPMCHANGE 181.93
#SCROLL 1.02
300000000000000000300000000000000000600000000000,
#BPMCHANGE 185.63
#SCROLL 1
000000000000000000000800000000000000000000000000,
#BPMCHANGE 186
300000000000000000300000000000000000400000000000,
000000400000000000000000300000000000300000000000,
300000000000000000300000000000000000400000000000,
000000400000000000000000300000000000300000000000,
300000000000000000400000000000000000300000000000,
#BPMCHANGE 187.81
#SCROLL 0.99
000000400000000000000000300000000000400000000000,
#BPMCHANGE 189
#SCROLL 1
300000300000300000300000000000400000000000400000,
#GOGOEND
#END
COURSE:Normal
LEVEL:4
BALLOON:9
SCOREINIT:750
SCOREDIFF:250
#START
000000000000000000000000000000000000000000000000,
#GOGOSTART
#BPMCHANGE 186.98
#SCROLL 0.99
300000000000000000300000000000000000300000000000,
000000300000000000000000300000000000300000000000,
#BPMCHANGE 185.03
#SCROLL 1.01
700000000000000000000000000000000000000000000000,
00000800,
#GOGOEND
#BPMCHANGE 186
#SCROLL 1
100000000000100000000000100000000000000000000000,
100000100000100000000000100000000000200000000000,
100000000000100000000000100000000000000000000000,
100000100000100000000000200000000000200000000000,
100000000000100000000000100000000000000000000000,
100000100000100000000000100000000000200000000000,
100000000000100000000000100000000000000000000000,
500000000000000000000008000000000000000000000000,
100000000000100000000000100000000000000000000000,
000000000000200000000000200000000000200000000000,
100000000000100000000000100000000000000000000000,
000000000000200000000000200000000000000000000000,
100000000000100000000000100000000000000000000000,
000000000000200000000000200000000000200000000000,
300000000000000000300000000000000000300000000000,
600000000000000000000008000000000000000000000000,
100000000000100000000000100000000000000000000000,
000000000000200000000000200000000000200000000000,
100000000000100000000000100000000000000000000000,
000000000000200000000000200000000000000000000000,
100000000000100000000000100000000000000000000000,
000000000000200000000000200000000000200000000000,
100000000000000000000000100000000000000000000000,
100000000000000000000000000000000000000000300000,
000000000000100000000000200000000000000000000000,
#BPMCHANGE 187.58
#SCROLL 0.99
100000100000100000000000200000000000000000000000,
#BPMCHANGE 182.73
#SCROLL 1.02
100000000000000000100000000000000000500000000000,
#BPMCHANGE 189.22
#SCROLL 0.98
000000000008000000000000000000000000000000300000,
#BPMCHANGE 184.6
#SCROLL 1.01
000000000000100000000000200000000000000000000000,
#BPMCHANGE 186
#SCROLL 1
100000100000100000000000200000000000000000000000,
100000100000100000000000100000100000100000000000,
200000000000000000000000000000000000000000300000,
000000000000100000000000200000000000000000000000,
100000100000100000000000200000000000000000000000,
100000000000000000100000000000000000500000000000,
000000000008000000000000000000000000000000000000,
100000000000100000000000200000000000000000000000,
100000100000100000000000200000000000000000000000,
300000000000300000000000000000000000300000000000,
#BPMCHANGE 188.56
#SCROLL 0.99
300000000000000000000000000000000000000000300000,
#GOGOSTART
#BPMCHANGE 183.51
#SCROLL 1.01
000000000000200000000000100000100000100000000000,
#BPMCHANGE 186.58
#SCROLL 1
200000000000200000000000100000100000100000000000,
200000000000200000000000100000100000100000000000,
000000000000000000000000200000000000200000000000,
#BPMCHANGE 186
100000000000000000000000100000100000200000000000,
#BPMCHANGE 184.64
#SCROLL 1.01
100000000000000000000000100000100000200000000000,
#BPMCHANGE 186.02
#SCROLL 1
500000000000000000000000000000000000000000000008,
#BPMCHANGE 187.93
#SCROLL 0.99
000000000000000000000000000000000000000000300000,
#BPMCHANGE 183.73
#SCROLL 1.01
000000000000200000000000100000100000100000000000,
#BPMCHANGE 186
#SCROLL 1
200000000000200000000000100000100000100000000000,
200000000000200000000000100000100000100000000000,
000000000000000000000000200000000000200000000000,
100000000000000000000000100000100000200000000000,
#BPMCHANGE 190.64
#SCROLL 0.98
100000000000000000000000100000100000200000000000,
#BPMCHANGE 181.93
#SCROLL 1.02
300000000000000000300000000000000000600000000000,
#BPMCHANGE 185.63
#SCROLL 1
000000000000000000000008000000000000000000000000,
#BPMCHANGE 186
300000000000000000300000000000000000300000000000,
000000300000000000000000300000000000300000000000,
400000000000000000400000000000000000400000000000,
000000400000000000000000400000000000400000000000,
300000000000000000300000000000000000400000000000,
#BPMCHANGE 187.81
#SCROLL 0.99
000000400000000000000000300000000000300000000000,
#BPMCHANGE 189
#SCROLL 1
600000000000000000000000000000000000000000000008,
#GOGOEND
#END
COURSE:Easy
LEVEL:4
BALLOON:6
SCOREINIT:610
SCOREDIFF:223
#START
,
#GOGOSTART
#BPMCHANGE 186.98
#SCROLL 0.99
300000000000000000300000000000000000300000000000,
000000300000000000000000300000000000300000000000,
#BPMCHANGE 185.03
#SCROLL 1.01
700000000000000000000000000000000000000000000000,
00000800,
#GOGOEND
#BPMCHANGE 186
#SCROLL 1
100000000000100000000000100000000000000000000000,
100000000000100000000000100000000000000000000000,
100000000000000000000000100000000000000000000000,
100000000000000000000000200000000000200000000000,
100000000000100000000000100000000000000000000000,
100000000000100000000000100000000000000000000000,
100000000000000000000000100000000000000000000000,
500000000000000000000008000000000000000000000000,
100000000000100000000000100000000000000000000000,
000000000000200000000000200000000000000000000000,
100000000000100000000000100000000000000000000000,
000000000000200000000000200000000000000000000000,
100000000000100000000000100000000000000000000000,
000000000000200000000000200000000000000000000000,
300000000000000000300000000000000000300000000000,
600000000000000000000008000000000000000000000000,
100000000000100000000000100000000000000000000000,
000000000000200000000000200000000000000000000000,
100000000000100000000000100000000000000000000000,
000000000000200000000000200000000000000000000000,
100000000000100000000000100000000000000000000000,
000000000000200000000000200000000000000000000000,
100000000000000000000000100000000000000000000000,
100000000000000000000000000000000000000000300000,
000000000000100000000000100000000000000000000000,
#BPMCHANGE 187.58
#SCROLL 0.99
100000000000100000000000100000000000000000000000,
#BPMCHANGE 182.73
#SCROLL 1.02
100000000000000000100000000000000000500000000000,
#BPMCHANGE 189.22
#SCROLL 0.98
000000000008000000000000000000000000000000300000,
#BPMCHANGE 184.6
#SCROLL 1.01
000000000000100000000000100000000000000000000000,
#BPMCHANGE 186
#SCROLL 1
100000000000100000000000100000000000000000000000,
200000000000000000000000200000000000000000000000,
200000000000000000000000000000000000000000300000,
000000000000100000000000100000000000000000000000,
100000000000100000000000100000000000000000000000,
100000000000000000100000000000000000500000000000,
000000000008000000000000000000000000000000000000,
100000000000000000000000100000000000000000000000,
200000000000000000000000200000000000000000000000,
300000000000300000000000000000000000300000000000,
#BPMCHANGE 188.56
#SCROLL 0.99
300000000000000000000000000000000000000000300000,
#GOGOSTART
#BPMCHANGE 183.51
#SCROLL 1.01
000000000000000000000000100000000000100000000000,
#BPMCHANGE 186.58
#SCROLL 1
100000000000000000000000100000000000100000000000,
100000000000000000000000200000000000000000000000,
000000000000000000000000100000000000100000000000,
#BPMCHANGE 186
100000000000000000000000100000000000100000000000,
#BPMCHANGE 184.64
#SCROLL 1.01
100000000000000000000000200000000000000000000000,
#BPMCHANGE 186.02
#SCROLL 1
500000000000000000000000000000000000000000000008,
#BPMCHANGE 187.93
#SCROLL 0.99
000000000000000000000000000000000000000000300000,
#BPMCHANGE 183.73
#SCROLL 1.01
000000000000000000000000100000000000100000000000,
#BPMCHANGE 186
#SCROLL 1
100000000000000000000000100000000000100000000000,
100000000000000000000000200000000000000000000000,
000000000000000000000000100000000000100000000000,
100000000000000000000000100000000000100000000000,
#BPMCHANGE 190.64
#SCROLL 0.98
100000000000000000000000200000000000000000000000,
#BPMCHANGE 181.93
#SCROLL 1.02
300000000000000000300000000000000000600000000000,
#BPMCHANGE 185.63
#SCROLL 1
000000000000000000000008000000000000000000000000,
#BPMCHANGE 186
300000000000000000300000000000000000300000000000,
000000300000000000000000300000000000300000000000,
400000000000000000400000000000000000400000000000,
000000400000000000000000400000000000400000000000,
300000000000000000300000000000000000400000000000,
#BPMCHANGE 187.81
#SCROLL 0.99
000000400000000000000000300000000000300000000000,
#BPMCHANGE 189
#SCROLL 1
600000000000000000000000000000000000000000000008,
#GOGOEND
#END