Files
2023-06-15 19:15:39 -05:00

360 lines
3.4 KiB
Plaintext

//TJADB Project
TITLE:Inferno
TITLEJA:インフェルノ
SUBTITLE:--Mrs. GREEN APPLE/Fire Force
SUBTITLEJA:「炎炎ノ消防隊」より
BPM:185
WAVE:Inferno.ogg
OFFSET:-1.428
DEMOSTART:38.873
COURSE:Oni
LEVEL:8
SCOREINIT:600
SCOREDIFF:165
#START
#GOGOSTART
10201120,
1010200012102000,
3333,
3010111040200000,
#GOGOEND
1112,
10211021,
11211021,
11103011,
1112,
10211022,
11201122,
500000000008000000500000000008000000400000000000,
10101120,
1000201210002010,
1010201210002012,
1010100120001010,
1000200012102000,
1000201210002020,
1010201210102020,
11204000,
1010220220201000,
12221210,
1010220220201000,
2000201120111000,
1010220210201000,
12221210,
1010220210202000,
1021021020102020,
1021021020004000,
#GOGOSTART
1000201110102011,
1010201110102011,
1010201110102011,
1000200011102012,
1000201110102012,
1010201110102012,
1010201110102000,
3010000040201111,
1000201210102012,
1010201210102012,
1010201210102012,
1000100011111111,
1000100011101000,
1000100011101022,
1000102210001022,
1000102012202000,
1220102012201020,
1220102012201020,
3333,
31004200,
#GOGOEND
10011002,
1000001110000020,
1000002220000010,
2000002220000020,
10011001,
10011003,
40043000,
31004200,
#GOGOSTART
1000202210102022,
1010202210102222,
1010222210102222,
1000100011111111,
1000100011101000,
1020100011101022,
1000102210001022,
1020102012202000,
1220122012201220,
1220122012221000,
4444,
#GOGOEND
4,
#END
COURSE:Hard
LEVEL:5
BALLOON:6,6,6,3,2
SCOREINIT:820
SCOREDIFF:186
#START
#GOGOSTART
10101110,
10101110,
3333,
31004200,
#GOGOEND
1111,
10011000,
1111,
11103000,
1111,
10022000,
11101110,
11011000,
1212,
10011000,
10201020,
11103000,
1212,
10022000,
11101110,
78,
1221,
1011,
1221,
1022,
1221,
1221,
1210,
78,
,
#GOGOSTART
10211021,
10211021,
10211021,
78,
10211021,
10211021,
10211020,
31004200,
10221022,
10221022,
10221022,
70803000,
1212,
1211,
1212,
1112,
12121212,
12121210,
3333,
31004200,
#GOGOEND
10011001,
10011001,
20022002,
20022002,
10011001,
10011001,
20021000,
31004200,
#GOGOSTART
10211021,
1000201010002011,
1000201110002010,
70803000,
1212,
1000200011101000,
1212,
1000100011102000,
12121212,
12121210,
4444,
#GOGOEND
4,
,
#END
COURSE:1
LEVEL:5
SCOREINIT:830,4490
SCOREDIFF:275
BALLOON:4,12,4,2,2
#START
#GOGOSTART
1110,
1110,
3333,
34,
#GOGOEND
11,
10011000,
11,
1130,
11,
10011000,
11,
5000000000000008
0000000000000000,
12,
10011000,
12,
1130,
12,
10011000,
11,
78,
2220,
2,
2220,
2,
1110,
1110,
7,
08,
,
#GOGOSTART
10011001,
10011001,
10011001,
78,
20022002,
20022002,
20022000,
34,
10011001,
10011002,
20022002,
70800000,
11,
2011,
11,
21,
3333,
3333,
3333,
34,
10011000,
10011000,
20022000,
20022000,
10011000,
10011000,
10011000,
34,
#GOGOSTART
10011002,
20011002,
20011002,
70800000,
12,
1021,
12,
11,
3333,
3333,
4444,
#GOGOEND
4,
,
#END
COURSE:0
LEVEL:3
SCOREINIT:910,8810
SCOREDIFF:485
BALLOON:9,9,3,3,3
#START
#GOGOSTART
1,
1,
11,
3,
#GOGOEND
1,
1,
11,
1,
2,
2,
22,
2,
1,
2,
11,
1,
1,
2,
7,
08,
22,
2,
22,
2,
22,
22,
7,
08,
,
#GOGOSTART
11,
11,
11,
78,
22,
22,
22,
3,
11,
11,
22,
78,
11,
11,
11,
11,
1111,
1111,
1110,
3,
#GOGOEND
1,
,
2,
,
1,
1,
11,
3,
#GOGOSTART
11,
21,
21,
78,
11,
1011,
11,
11,
1111,
1111,
1110,
#GOGOEND
3,
,
#END