Files
2023-01-17 00:45:18 -05:00

274 lines
3.2 KiB
Plaintext

//TJADB Project
TITLE:Into the Unknown
TITLEJA:Into the Unknown
SUBTITLE:--Panic! At The Disco/Frozen Ⅱ
SUBTITLEJA:「アナと雪の女王2」より
BPM:117
WAVE:Into the Unknown.ogg
OFFSET:-8.360
DEMOSTART:72.965
COURSE:Oni
LEVEL:7
BALLOON:20,4,4,6,6,6,20
SCOREINIT:1390
SCOREDIFF:400
#START
#GOGOSTART
6,
000000000000008000000000
#GOGOEND
000000000000000000000000,
#GOGOSTART
6,
000000000000008000000000
#GOGOEND
000000000000000000000000,
#GOGOSTART
600000000000008000060000000008000000300000000700,
0008,
300202000222,
0,
#GOGOEND
100010200010100010201110,
100010200010100010201110,
102010200010102010201110,
100010200010100010201110,
100010201010100010201110,
102010101070000080001110,
100010201010100010201110,
102010101070000080001110,
100202000222,
000000001101,
000202000222,
000000200020000010102220,
100010100010100010102220,
102020100010100010102220,
100010101110100010100010,
102020101110100010100010,
202101202101,
201227000801,
202101202101,
212217000801,
200011101020100011101020,
101020101020100011101020,
300011101020300011101020,
700000008000111010100000,
#GOGOSTART
6,
000000000000000800000000101010001000100000000000,
6,
000000000000000800000000101010001000100000000000,
600000000000080000006000000008000000300000007000,
0008,
#GOGOEND
3,
#END
COURSE:Hard
LEVEL:5
BALLOON:28,3,3,4,4,16
SCOREINIT:1690
SCOREDIFF:618
#START
#GOGOSTART
6,
00000800
#GOGOEND
00000000,
#GOGOSTART
6,
00000800
#GOGOEND
00000000,
#GOGOSTART
9,
0,
8,
0,
#GOGOEND
101100201100,
100100201100,
101100201100,
100100201100,
101010100011,
101117008011,
101010100011,
101117008011,
100202000222,
000000000101,
000202000222,
000202001011,
101100201100,
101102201100,
101100201100,
101102201100,
102200102200,
102227000800,
102200102200,
102227000800,
101102201100,
101102201100,
302200302200,
600000000008000000000000100010001000100000000000,
#GOGOSTART
6,
000000000000000800000000100010001000100000000000,
6,
000000000000000800000000100010001000100000000000,
9,
8,
#GOGOEND
3,
#END
COURSE:Normal
LEVEL:2
BALLOON:21,8,8,12
SCOREINIT:2060
SCOREDIFF:1510
#START
#GOGOSTART
#MEASURE 4/4
6,
00000800
#GOGOEND
00000000,
#GOGOSTART
6,
00000800
#GOGOEND
00000000,
#GOGOSTART
9,
0,
8,
0,
#GOGOEND
1012,
11,
2021,
22,
1110,
2220,
1110,
2220,
1,
2,
3,
4,
1012,
1110,
2120,
1210,
1121,
70000800,
1121,
70000800,
1122,
1122,
3131,
3011,
#GOGOSTART
6,
000000000008000000000000100000000000100000000000,
6,
000000000008000000000000100000000000100000000000,
9,
8,
#GOGOEND
3,
#END
COURSE:Easy
LEVEL:1
BALLOON:18,6,6,10
SCOREINIT:1840
SCOREDIFF:1860
#START
#GOGOSTART
#MEASURE 4/4
6,
00000800
#GOGOEND
00000000,
#GOGOSTART
6,
00000800
#GOGOEND
00000000,
#GOGOSTART
9,
0,
8,
0,
#GOGOEND
1,
1,
2,
1,
11,
22,
11,
22,
1,
0,
3,
0,
11,
1110,
22,
1110,
1111,
70000800,
1111,
70000800,
1110,
1110,
3333,
31,
#GOGOSTART
6,
000008000000000000000000100000000000000000000000,
6,
000008000000000000000000100000000000000000000000,
9,
8,
#GOGOEND
3,
#END