Files
2023-06-15 19:15:39 -05:00

264 lines
9.5 KiB
Plaintext

//TJADB Project
TITLE:JUST LIVE MORE -Short Version-
TITLEJA:JUST LIVE MORE -Short Version-
SUBTITLE:--Shonan no Kaze/Kamen Rider Gaim
SUBTITLEJA:「仮面ライダー鎧武」より
BPM:190
WAVE:JUST LIVE MORE -Short Version-.ogg
OFFSET:-1.757
DEMOSTART:11.852
COURSE:Oni
LEVEL:7
SCOREINIT:990
SCOREDIFF:313
#START
100000000000000000000000000000000000000000000000,
000000000000000000000000000000000000000000000000,
100000000000000000000000000000000000000000200200,
200000200000000000200000200000000000200000200000,
100000000000000000000000000000000000000000000000,
300000000000000000000000300000000000000000000000,
300000000000000000300000000000000000000000000000,
600000000000000000000000000000000008000000000000,
300000300000000000300000000000100100100000000000,
400000400000000000400000000000200200200000000000,
300000300000000000300000000000100100100000000000,
400000400000000000400000000000200200200200200000,
100000000000100000000000100000000000100000100000,
100000000000200000100000000000200000000000100000,
100000200000000000200000100000100000200000100000,
100000200000000000200000000000200000200000100000,
100000000000100000100000100000000000100000100000,
100000000000200000100000000000200000000000100000,
100000200000000000200000100000100000200000100000,
100000200200200000200000000000200000200000200000,
300000300000000000300000000000100100100000000000,
400000400000000000400000000000200200200000000000,
300000300000000000300000000000100100100000000000,
400000400000000000400000000000200200200200200000,
100000000000100000000000100000000000100000000000,
100000200000100000200000100000200000100000200000,
100100100000100100100000100100100000100100100000,
300000300000000000300000000000000000000000000000,
#GOGOSTART
100000100000200000000000100000100000200200200000,
100000100000200000000000100000100000200200200000,
100000100000200000000000100000100000200000100000,
000000100000200000000000100000100000200200200000,
100000000000100000000000100000100000000000100100,
100000100000100000100000000000000000000000100100,
100000100000200000100100100000100000200000100100,
100000100000000000100000100000100000100100100100,
100000100000200000100100100000100000200000200000,
100000100000200000100100100000100000200000100000,
100000100000200000100100100000100000200000200000,
100000100000200000100100100000100000200000100000,
100000100000200000100100100000100000200200200000,
100000100000200000100100100000100000100100100000,
200200200000200200200000200200200000200200200200,
200000000000300000000000300000000000300000000000,
600000000000000000000000000000000008000000000000,
600000000000000000000000000000000008000000000000,
#GOGOEND
#END
COURSE:Hard
LEVEL:5
SCOREINIT:970
SCOREDIFF:360
#START
100000000000000000000000000000000000000000000000,
000000000000000000000000000000000000000000000000,
100000000000000000000000000000000000000000200000,
200000200000000000200000200000000000200000200000,
100000000000000000000000000000000000000000000000,
300000000000000000000000300000000000000000000000,
300000000000000000300000000000000000000000000000,
600000000000000000000000000000800000000000000000,
300000300000000000300000000000000000000000000000,
300000300000000000400000000000000000000000000000,
300000300000000000300000000000000000000000000000,
300000300000000000400000000000000000000000000000,
100000000000100000000000100000000000100000100000,
100000000000100000100000000000000000000000200000,
200000200000000000200000200000000000200000000000,
200000200000000000200000000000000000000000100000,
100000000000100000000000100000000000100000100000,
100000000000100000100000000000000000000000200000,
200000200000000000200000200000000000200000000000,
200000200000000000200000000000000000000000000000,
300000300000000000300000000000000000000000000000,
300000300000000000400000000000400000400000000000,
300000300000000000300000000000000000000000000000,
300000300000000000400000000000400000400000000000,
100000000000100000000000100000000000100000000000,
100000200000100000200000100000200000100000200000,
100000100000100000100000100000100000100000100000,
300000300000000000300000000000000000000000000000,
#GOGOSTART
100000100000200000000000100000100000200000100000,
100000100000200000000000100000100000200000100000,
100000100000200000000000100000100000200000100000,
000000100000200000000000100000100000200000000000,
100000000000100000000000100000100000000000100000,
100000100000100000100000000000000000000000300000,
300000300000000000300000300000300000000000600000,
000000000000000000000000000000800000000000000000,
100000100000200000100000000000100000200000100000,
100000100000200000100000200000000000200000000000,
100000100000200000100000000000100000200000100000,
100000100000200000100000200000000000200000000000,
100000100000200000100000000000100000200000000000,
100000100000200000100000000000100000200000000000,
100000100000100000100000100000100000100000100100,
100000000000300000000000300000000000300000000000,
600000000000000000000000000000000800000000000000,
600000000000000000000000000000000800000000000000,
#GOGOEND
#END
COURSE:Normal
LEVEL:3
BALLOON:8,8
SCOREINIT:1370
SCOREDIFF:1035
#START
#SCROLL 0.8
100000000000000000000000000000000000000000000000,
000000000000000000000000000000000000000000000000,
100000000000000000000000000000000000000000000000,
000000000000000000000000000000000000000000000000,
100000000000000000000000000000000000000000000000,
300000000000000000000000300000000000000000000000,
300000000000000000000000000000000000000000000000,
600000000000000000000000000000800000000000000000,
300000000000000000300000000000000000000000000000,
300000000000000000300000000000000000000000000000,
300000000000000000300000000000000000000000000000,
300000000000000000300000000000000000000000000000,
100000000000100000000000100000000000000000000000,
100000000000000000100000000000000000000000000000,
200000000000200000000000200000000000000000000000,
200000000000000000200000000000000000000000000000,
100000000000100000000000100000000000000000000000,
100000000000000000100000000000000000000000000000,
200000000000200000000000200000000000000000000000,
200000000000000000200000000000000000000000000000,
300000000000000000300000000000000000400000000000,
300000000000000000300000000000000000000000000000,
300000000000000000300000000000000000400000000000,
300000000000000000300000000000000000000000000000,
100000000000100000000000100000000000100000000000,
100000000000100000000000100000000000100000000000,
500000000000000000000000000000800000000000000000,
300000000000000000300000000000000000000000000000,
#GOGOSTART
100000000000100000000000200000000000000000000000,
100000000000100000000000200000000000000000000000,
100000000000100000000000100000000000100000000000,
100000000000000000000000100000000000000000000000,
100000000000100000000000100000000000000000000000,
100000000000100000000000000000000000000000000000,
300000000000400000000000300000000000400000000000,
600000000000000000000000000000800000000000000000,
9,
8,
9,
8,
100000000000000000000000100000000000100000000000,
100000000000000000000000100000000000100000000000,
500000000000000000000000000000000000800000000000,
000000000000300000000000300000000000300000000000,
600000000000000000000000000000800000000000000000,
600000000000000000000000000000800000000000000000,
#GOGOEND
#END
COURSE:Easy
LEVEL:2
BALLOON:5,5
SCOREINIT:1240
SCOREDIFF:1435
#START
#SCROLL 0.8
000000000000000000000000000000000000000000000000,
000000000000000000000000000000000000000000000000,
000000000000000000000000000000000000000000000000,
000000000000000000000000000000000000000000000000,
000000000000000000000000000000000000000000000000,
300000000000000000000000300000000000000000000000,
300000000000000000000000000000000000000000000000,
600000000000000000000000800000000000000000000000,
300000000000000000300000000000000000000000000000,
300000000000000000300000000000000000000000000000,
300000000000000000300000000000000000000000000000,
300000000000000000300000000000000000000000000000,
100000000000000000000000000000000000000000000000,
100000000000000000000000000000000000000000000000,
200000000000000000000000000000000000000000000000,
200000000000000000000000000000000000000000000000,
100000000000000000000000100000000000000000000000,
100000000000000000000000000000000000000000000000,
200000000000000000000000200000000000000000000000,
200000000000000000000000000000000000000000000000,
300000000000000000300000000000000000000000000000,
300000000000000000300000000000000000000000000000,
300000000000000000300000000000000000000000000000,
300000000000000000300000000000000000000000000000,
100000000000000000000000000000000000000000000000,
100000000000000000000000100000000000000000000000,
500000000000000000000000800000000000000000000000,
300000000000000000300000000000000000000000000000,
#GOGOSTART
100000000000000000000000200000000000000000000000,
100000000000000000000000200000000000000000000000,
100000000000000000000000100000000000000000000000,
100000000000000000000000000000000000000000000000,
100000000000100000000000100000000000000000000000,
100000000000100000000000000000000000000000000000,
300000000000000000000000300000000000000000000000,
600000000000000000000000800000000000000000000000,
9,
8,
9,
8,
100000000000000000000000100000000000000000000000,
100000000000000000000000100000000000000000000000,
500000000000000000000000000000000000800000000000,
000000000000300000000000300000000000300000000000,
600000000000000000000000000000800000000000000000,
600000000000000000000000000000800000000000000000,
#GOGOEND
#END