Files
2023-06-15 19:15:39 -05:00

297 lines
4.1 KiB
Plaintext
Raw Permalink Blame History

This file contains ambiguous Unicode characters
This file contains Unicode characters that might be confused with other characters. If you think that this is intentional, you can safely ignore this warning. Use the Escape button to reveal them.
//TJADB Project
TITLE:JoJo ~Sono Chi no Sadame~
TITLEJA:ジョジョ ~その血の運命~
SUBTITLE:--Hiroaki “TOMMY” Tominaga/JoJo’s Bizarre Adventure
BPM:146
WAVE:JoJo ~Sono Chi no Sadame~.ogg
OFFSET:-0.918
DEMOSTART:53.229
BGMOVIE:JoJo ~Sono Chi no Sadame~.mp4
COURSE:Oni
LEVEL:7
SCOREINIT:840
SCOREDIFF:190
#START
1101101010001000,
1101101000300000,
500000000000000000000008000000000000000000000000,
1001001010002000,
1010221010102210,
43000000,
1010201010002011,
11212020,
500000000000000000000000000000000000000000000008,
,
1010201010002011,
11212010,
500000000000000000000000000000000008000000000000,
500000000000000000000008000000000000100000100000,
1000100010010010,
1101101011011010,
500000000000000000000000000008000000400000000000,
30430340,
3030003000202220,
33330000,
1000201010002011,
10212020,
1010201010002011,
11200120,
1000201010002011,
10212020,
500000000000000000000000000000000008000000000000,
33000000,
3030222022203030,
2220222030302000,
3030222022203030,
2020000000000011,
#GOGOSTART
1010101110101011,
1010101110100010,
1020112011201111,
1010101110101011,
1020112011201111,
1010101110101011,
1020112011201111,
1020102010221011,
1020102010221011,
5,
000000000000000000000008000000000000000000000000,
3333,
3330,
4460,
000000000000000000000000000000000008000000000000,
3000001110102010,
1001001110102010,
1010221010102210,
1220122012204000,
2210221022100040,
33000000,
#GOGOEND
#END
COURSE:Hard
LEVEL:5
BALLOON:10,10,12
SCOREINIT:900
SCOREDIFF:220
#START
1101101010001000,
1101101000300000,
500000000000000000000000000008000000000000000000,
1001001010000000,
1010111010101110,
33000000,
11011020,
11011020,
500000000000000000000000000000000000000000000008,
,
11011020,
11011020,
500000000000000000000000000000000008000000000000,
500000000000000000000008000000000000100000100000,
1000100010010010,
1001001010010010,
500000000000000000000008000000000000400000000000,
30030000,
33030000,
33330000,
10011020,
10011020,
10111020,
1100,
10011020,
10011020,
500000000000000000000000000000000000000000000008,
,
33000033,
00003300,
33000033,
44000000,
#GOGOSTART
1010101010101011,
11111101,
7008,
11111111,
7008,
11111111,
7008,
1010202011102000,
1010202011102000,
9009,
8,
3333,
3330,
4460,
000000000000000000000000000000000000800000000000,
3,
1001001010002000,
1010111010101110,
2220222022200000,
1110111011100030,
33000000,
#GOGOEND
#END
COURSE:Normal
LEVEL:5
BALLOON:7,7,7,10
SCOREINIT:1100
SCOREDIFF:300
#START
1011,
10000300,
500000000000000000000000000008000000000000000000,
11,
1111,
33000000,
1011,
1011,
500000000000000000000000000000000000000000000008,
,
1110,
1110,
500000000000000000000008000000000000000000000000,
500000000000000000000008000000000000000000000000,
1110,
1110,
500000000000000000000000000008000000000000000000,
30030000,
33030000,
33330000,
2022,
2011,
11,
1,
2022,
2011,
500000000000000000000000000000000000000000000008,
,
33000033,
00003300,
33000033,
,
#GOGOSTART
11111110,
11111101,
7008,
11111110,
7008,
11111110,
7008,
11102220,
11102220,
9009,
8,
3333,
3330,
4460,
000000000000000000000000000008000000000000000000,
3,
11,
1111,
2220,
10101003,
33000000,
#GOGOEND
#END
COURSE:Easy
LEVEL:3
BALLOON:4,4,4,5
SCOREINIT:810
SCOREDIFF:270
#START
1011,
10000300,
500000000000000000000000000008000000000000000000,
11,
1111,
3,
1011,
11,
500000000000000000000000000000000000000000000008,
,
1011,
11,
500000000000000000000000000000000008000000000000,
500000000000000000000008000000000000000000000000,
1110,
1110,
500000000000000000000000000008000000000000000000,
3,
3,
3300,
22,
2,
11,
1,
22,
2,
500000000000000000000000000000000000000000000008,
,
33000033,
00003300,
33000033,
,
#GOGOSTART
1111,
1111,
7008,
1111,
7008,
1111,
7008,
1110,
1110,
9009,
8,
3333,
3330,
3360,
000000000000000000000000000008000000000000000000,
3,
11,
1110,
2220,
1110,
3,
#GOGOEND
#END