Files
2023-06-15 19:15:39 -05:00

332 lines
10 KiB
Plaintext

//TJADB Project
TITLE:Kagayaki
TITLEJA:輝
SUBTITLE:--Toshihiko Sahashi/Kamen Rider Hibiki
SUBTITLEJA:仮面ライダー響鬼 オープニングテーマ
BPM:104
WAVE:Kagayaki.ogg
OFFSET:-2.590
DEMOSTART:60.258
COURSE:Oni
LEVEL:6
SCOREINIT:910
SCOREDIFF:140
#START
300000100100100100000100100100100100100100100000,
500000000000000000000000000000000000008000000000,
300000000100000100100000000100000100100000100100,
100000000100000000100000000000000000000000100100,
100000000100000100100000000100000100100000100100,
100000000100000000100000000000000000000000100100,
100000000100000100100000000100000100100000100100,
100000000100000000100000000000000000000000100100,
100000000100000100100000000100000100100000100100,
100000000100000100100000000100000000100100100100,
#GOGOSTART
100000000100000000100000100100000000100000100000,
200000000200000000200000200000000000100100100100,
100000000100000000100000100100000000100000100000,
200000000200000000200000200000000000100100100100,
100000000100000000100000100000000100000000100000,
100000000100000000100000100000000100000000100000,
500000000000000000000000000000000000000008000000,
100000000100000000100000000100000000100100100100,
100000100100000100100000100100000100100000100100,
100000100000100000100000100100000100100100100000,
100000100000100000100000100000000000000000100100,
#GOGOEND
100000100100000100100000100100000100100200200100,
100000100100000100100000100100000100100100100100,
100000100100000100100000100100000100100200200100,
100000100100000100100000100100000100100100100000,
#BRANCHSTART p,75,90
#N
1001022001011022,
1021021001102211,
1001022001011022,
1021021001101122,
1001011001011011,
1001011001011011,
1021012001221011,
1021012001221122,
#GOGOSTART
1001001011001122,
1001001011001112,
1001001011001122,
1001001011001112,
1001001010010010,
2002002020020020,
500000000000000000000000000000000008000000000000,
1021022022021121,
1021021021021011,
1010101011011111,
500000000000000000000000000000000008000000000000,
#GOGOEND
3,
#E
1021120212011021,
1021120112011021,
1021120212011021,
1001001000112210,
1021120212011021,
1021120112011021,
1011001011011022,
1011011011011221,
#GOGOSTART
1001001011001122,
1001001011001112,
1001001011001122,
1001001011001112,
1001001010010010,
2002002020020020,
500000000000000000000000000000000008000000000000,
3020202202202212,
1003003003003000,
1010101011011111,
11111000,
#GOGOEND
3,
#M
1021012001011011,
1121121001011011,
1021012001011011,
1221221001011011,
1021012001011011,
1121121001011011,
1021012001201022,
1121121001202211,
#GOGOSTART
1021011211001021,
1021011211001021,
1021012211012021,
1021012211012021,
1021012021011120,
1021012021011120,
1121121121111010,
500000000000000000000000000008000000100100200100,
1021021021012110,
1010101011011110,
500000000000000000000000000000000008000000000000,
#GOGOEND
3,
#BRANCHEND
#END
COURSE:Hard
LEVEL:4
BALLOON:26
SCOREINIT:490
SCOREDIFF:160
#START
300000100100100100000100100100100000100100100000,
500000000000000000000000000000000000000008000000,
300000000100000100100000000100000100100000100100,
100000000100000000100000000000000000000000100100,
100000000100000100100000000100000100100000100100,
100000000100000000100000000000000000000000100100,
100000000100000100100000000100000100100000100100,
100000000100000000100000000000000000000000100100,
100000000100000100100000000100000100100000100100,
100000000100000100100000000100000000100100100100,
#GOGOSTART
100000000100000000100000100100000000100000100000,
200000000200000000200000200000000000100100100100,
100000000100000000100000100100000000100000100000,
200000000200000000200000200000000000100100100100,
100000000100000000100000100000000100000000100000,
100000000100000000100000100000000100000000100000,
500000000000000000000000000000000000000008000000,
100000000100000000100000000100000000100100100100,
100000100100000100100000100100000100100000100100,
100000100000100000100000100100000100100100100000,
100000100000100000100000100000000000000000100100,
#GOGOEND
100000100100000100100000100100000100100100100000,
100000100100000100100000100100000100100100100000,
100000100100000100100000100100000100100100100000,
100000100100000100100000100100000100100100100000,
300000000100000100100000000100000000100000100100,
100000100100000100100000000100000000100000100100,
100000000100000100100000000100000000100000100100,
100000100100000100100000000100000000100000100100,
100000000100000100100000000100000000100000100100,
100000100100000100100000000100000000100000100100,
100000000100000100100000000100000100100000100100,
100000000100000100100000000100000000100100100100,
#GOGOSTART
100000000100000000100000100100000000100100100100,
200000000200000000200000200200000000100100100100,
100000000100000000100000100100000000100100100100,
200000000200000000200000200200000000100100100100,
100000000100000000100000100000000100000000100000,
200000000200000000200000200000000200000000200000,
100000000100000000100000000100000000100000100000,
300000000000000000000000000000000000100100100100,
100000000300000000300000000300000000300000000000,
700000000000000000000000000000000000000000000000,
000000000000000000000000000000800000000000000000,
#GOGOEND
300000000000000000000000000000000000000000000000,
#END
COURSE:Normal
LEVEL:2
BALLOON:14,14
SCOREINIT:270
SCOREDIFF:600
#START
300000000000000000000000000000000000000000000000,
000000000000000000000000000000000000000000300000,
300000000000000000000000000000000000100000000000,
100000000100000000100000000000000000000000000000,
100000000000000000000000000000000000100000000000,
100000000100000000100000000000000000000000000000,
100000000000000000000000000000000000100000000000,
100000000100000000100000000000000000000000000000,
100000000000000000200000000000000000000000000000,
100000000000000000200000000000000000000000000000,
#GOGOSTART
100000000100000000100000100000000000000000000000,
200000000200000000200000200000000000000000000000,
100000000100000000100000100000000000000000000000,
200000000200000000200000200000000000000000000000,
100000000000000000000000100000000000000000000000,
500000000000000000000000000000000000000000000000,
000000000000000000000000000000000008000000000000,
300000000000000000000000000000000000000000000000,
100000000100000000100000000100000000100000000000,
700000000000000000000000000000000000000000000000,
000000000000000000000000000000000000800000000000,
#GOGOEND
300000000000000000000000000000000000000000000000,
100000000100000000100000000000000000000000000000,
100000000100000000100000000000000000000000000000,
100000000100000000100000000000000000000000000000,
300000000000000000000000000000000000100000000000,
100000000100000000100000000000000000000000000000,
100000000000000000000000000000000000100000000000,
100000000100000000100000000000000000000000000000,
100000000000000000000000000000000000100000000000,
100000000100000000100000000000000000000000000000,
100000000200000000200000000000000000000000000000,
100000000200000000200000000000000000000000000000,
#GOGOSTART
100000000100000000100000100000000000000000000000,
200000000200000000200000200000000000000000000000,
100000000100000000100000100000000000000000000000,
200000000200000000200000200000000000000000000000,
100000000100000000100000100000000100000000100000,
500000000000000000000000000000000000000000000000,
000000000000000000000000000000000008000000000000,
300000000000000000000000000000000000000000000000,
100000000100000000100000000100000000100000000000,
700000000000000000000000000000000000000000000000,
000000000000000000000000000000000000800000000000,
#GOGOEND
300000000000000000000000000000000000000000000000,
#END
COURSE:Easy
LEVEL:2
BALLOON:14,14
SCOREINIT:320
SCOREDIFF:1120
#START
300000000000000000000000000000000000000000000000,
000000000000000000000000000000000000000000300000,
300000000000000000000000000000000000100000000000,
100000000000000000000000000000000000000000000000,
100000000000000000000000000000000000100000000000,
100000000000000000000000000000000000000000000000,
100000000100000000000000000000000000000000000000,
100000000100000000000000000000000000000000000000,
100000000000000000000000000000000000000000000000,
100000000000000000000000000000000000000000000000,
#GOGOSTART
100000000100000000000000100000000000000000000000,
100000000000000000100000000000000000000000000000,
100000000100000000000000100000000000000000000000,
100000000000000000100000000000000000000000000000,
100000000000000000000000100000000000000000000000,
500000000000000000000000000000000000000000000000,
000000000000000000000000000000000008000000000000,
300000000000000000000000000000000000000000000000,
100000000000000000100000000000000000100000000000,
700000000000000000000000000000000000000000000000,
000000000000000000800000000000000000000000000000,
#GOGOEND
300000000000000000000000000000000000000000000000,
100000000000000000000000000000000000000000000000,
100000000000000000000000000000000000000000000000,
100000000000000000000000000000000000000000000000,
300000000000000000000000000000000000100000000000,
100000000000000000000000000000000000000000000000,
100000000000000000000000000000000000100000000000,
100000000000000000000000000000000000000000000000,
100000000100000000000000000000000000000000000000,
100000000100000000000000000000000000000000000000,
100000000000000000000000000000000000000000000000,
100000000000000000000000000000000000000000000000,
#GOGOSTART
100000000100000000000000100000000000000000000000,
100000000000000000100000000000000000000000000000,
100000000100000000000000100000000000000000000000,
100000000000000000100000000000000000000000000000,
100000000000000000000000100000000000000000000000,
500000000000000000000000000000000000000000000000,
000000000000000000000000000000000008000000000000,
300000000000000000000000000000000000000000000000,
100000000000000000100000000000000000100000000000,
700000000000000000000000000000000000000000000000,
000000000000000000800000000000000000000000000000,
#GOGOEND
300000000000000000000000000000000000000000000000,
#END