Files
2023-06-15 19:05:10 -05:00

303 lines
3.7 KiB
Plaintext

//TJADB Project
TITLE:Kagerou
TITLEJA:カゲロウ
SUBTITLE:--ЯeaL/Gintama.
SUBTITLEJA:「銀魂.」より
BPM:164
WAVE:Kagerou.ogg
OFFSET:-1.785
DEMOSTART:49.688
COURSE:Oni
LEVEL:7
BALLOON:18
SCOREINIT:680
SCOREDIFF:160
#START
1111111110000000,
40334033,
4370,
0008,
3003003030000000,
1020102011102020,
1020102011102020,
1020102011102000,
3003003030000000,
10121021,
21121120,
10121012,
12212210,
10121021,
21121120,
12212210,
3000004000202220,
1010201110102011,
21210110,
1010201110102011,
22120440,
1010201110102011,
21210010,
1020200011101110,
2000102000201110,
10210210,
3003003000102000,
2000102000112000,
3333,
1110101110101110,
1110101110101110,
1000202020202220,
0011100030300000,//33
#GOGOSTART
1002202010022020,
100000000200200000200000600000000000000008000000,
1020201120102020,
1110102010202000,
1002202010022020,
100000000200200000200000600000000000000008000000,
1020201120102020,
1120102010001110,
1002102010021020,
100000000200100000100000600000000000000008000000,
1020202210102020,
1111111020004000,
1001202010012020,
100000000100200000100000600000000000000008000000,
2010101020201110,
4000400040001110,
1010101020111000,//49
#GOGOEND
1110201011102020,
1110201011102010,
1110201011102020,
1120102010111000,
1002102010021020,
1111111020101020,
33333333,
#END
COURSE:Hard
LEVEL:4
BALLOON:16,16
SCOREINIT:650
SCOREDIFF:210
#START
600000000000000000000008000000000000000000000000,
40334033,
4390,
09,
8,
11101110,
11102220,
11101110,
3003003030000000,
11011010,
11011020,
11011010,
11011020,
11011020,
11011020,
600000000000000000000000000000000008000000000000,
3,
11101010,
11010110,
11101010,
11010440,
11101010,
11020020,
600000000000000000000000000000000008000000000000,
3,
10010010,
3003003000002020,
2222,
3333,
30011101,
01010011,
10222022,
03003300,//33
#GOGOSTART
10221022,
100000000000100000100000600000000000000008000000,
02202220,
12121000,
10221022,
100000000000100000100000600000000000000008000000,
02202220,
12121000,
10121012,
100000000000200000200000600000000000000008000000,
02202220,
1110101010000000,
20112011,
200000000000100000100000600000000000000008000000,
01111110,
4440,
22112220,//49
#GOGOEND
11101110,
11102220,
11101110,
11101022,
10221022,
12129000,
09,
8,
,
,
,
#END
COURSE:Normal
LEVEL:4
BALLOON:14,9,14
#START
600000000000000000000008000000000000000000000000,
33,
3390,
09,
8,
1110,
2220,
1110,
600000000000000000000008000000000000000000000000,
11,
1,
22,
2,
11,
2,
600000000000000000000000000000000008000000000000,
3,
1111,
1110,
2222,
2220,
1111,
1110,
600000000000000000000000000000000008000000000000,
3,
10010000,
3,
20020000,
3333,
30010000,
20020000,
9009,
8,//33
#GOGOSTART
10101011,
1110,
10101110,
2220,
10101011,
1110,
20202220,
2220,
10111011,
1110,
10101110,
22202000,
20102011,
1210,
10102220,
3340,
33304040,//49
#GOGOEND
600000000000000000000000000000000000000000000008,
,
10101110,
1120,
33,
3390,
09,
8,
,
,
,
#END
COURSE:Easy
LEVEL:2
BALLOON:8,4,7,7,7,8
#START
600000000000000000000008000000000000000000000000,
33,
39,
09,
8,
11,
1011,
11,
600000000000000000000008000000000000000000000000,
11,
1,
22,
2,
11,
1,
600000000000000000000000000008000000000000000000,
3,
11,
1110,
22,
2220,
11,
1110,
600000000000000000000000000008000000000000000000,
3,
3,
4,
33,
3333,
3,
4,
9009,
8,//33
#GOGOSTART
3330,
3330,
07000000,
08,
3330,
4440,
07000000,
08,
3333,
3330,
07000000,
08,
4444,
4440,
,
3330,
3333,//49
#GOGOEND
600000000000000000000000000000000000000000000008,
,
11,
1,
33,
3390,
09,
8,
,
,
,
#END