Files
2023-06-15 19:15:39 -05:00

304 lines
12 KiB
Plaintext

//TJADB Project
TITLE:Kasabuta
TITLEJA:カサブタ
SUBTITLE:--Hidenori Chiwata/Zatch Bell‼
SUBTITLEJA:金色のガッシュベル!!
BPM:172
WAVE:Kasabuta.ogg
OFFSET:-6.356
DEMOSTART:56.392
COURSE:Oni
LEVEL:9
BALLOON:14
SCOREINIT:820
SCOREDIFF:190
#START
100000000000200000100000000000200000100000000000,
000000200000000000000000200000000000200000000000,
300000000000200000300000000000200000300000000000,
000000000000200000000000200000500000000008000000,
100000100100100000200000000000100000200000200000,
100000100100100000200000000000100000400000000000,
100000100100100000200000000000100000200000200000,
000000000000200000000000000000000000200000200000,
100000100100100000200000000000100000200000200000,
100000100100100000200000000000100000400000000000,
100000100100100000200000000000000000000000100000,
200000100000200000100000200000100000000000200200,
100000000000100000100100100000100000200000100100,
100000100000200000100100100000100000200000100100,
100000100000200000000000000000000000200000000000,
000000000000200000000000000000000000200000200200,
200000100000100000100100100000100000200000100100,
100000100000200000100100100000100000200000100100,
100000100000500000000000000008000000200000200000,
300000000000200000300000000000200000300000200000,
300000000000100000100100100000100000200000100100,
100000100000200000100100100000100000200000200100,
100000100000200000100000000000000000200000000000,
000000000000200000000000000000000000200000000000,
000000100000100000100100100000100000200000100100,
100000100000200000100100100000100000200000200100,
100000100000500000000000000000000000000008000000,
300000000000200000300000000000200000300000200200,
100000000000200000100100100000100000200000100100,
100000000000000000000000000000100000100000100100,
100000000000200000100100100000100000200000100100,
100000000000000000000000000000000000000000100100,
100000100000200000100100100000100000200000100000,
000000100100100000100000000000100100100000100000,
200000100100100000700000000000000000000000000000,
000000000000000000000000000000800000000000100100,
100000100000200000200100100000100000200000200100,
100000100100100000100000000000000000000000100100,
100000100100200000200100100000100100200000200100,
100000100100100000100000400000000000400000000000,
100000100000200000200000100000100000200000200000,
100000100100100000100000000000000000000000100000,
100000100000200000200000100000100000200000200000,
300000000000000000300000000000300000000000100100,
100000100000200000200100100000100000200000200100,
100000100100100000100000000000000000000000100100,
100000100100200000200100100000100100200000200100,
100000100100100000100000400000000000400000000000,
100000100000200000200000100000100000200000200000,
100000100100100000100000000000000000000000100000,
100000100000100000200200200000000000100100100000,
500000000000000000000000000000000000000000000008,
000000000000000000000000400000000000400000000000,
100000200200200000100000200200200000100000000000,
000000400000000000000000500000000000000008000000,
300000000000200000300000000000200000600000000000,
000000000000000000000000000000000008000000000000,
100000100000100000100000100100100000000000400000,
000000400000300000000000000000000000000000000000,
#END
COURSE:Hard
LEVEL:6
BALLOON:13
SCOREINIT:870
SCOREDIFF:210
#START
100000000000200000100000000000200000100000000000,
000000200000000000000000200000000000200000000000,
300000000000000000300000000000000000300000000000,
000000000000200000000000200000500000008000000000,
100000000000100000100000000000100000200000000000,
100000000000100000100000000000100000200000000000,
100000000000100000100000000000100000200000100000,
000000000000200000000000000000000000200000000000,
100000000000100000100000000000100000200000000000,
100000000000100000100000000000100000200000000000,
100000000000100000100000000000000000000000100000,
200000100000200000100000200000100000000000200200,
200000000000100000100000100000100000200000100000,
100000100000200000100000100000100000200000100000,
100000000000100000000000000000000000200000000000,
000000000000200000000000000000000000200000200000,
000000100000100000100000100000100000200000100000,
100000100000200000100000100000100000200000100000,
100000100000100000000000000000000000200000200000,
100000000000200000100000000000200000100000200000,
100000000000100000100000100000100000200000100000,
100000100000200000100000100000100000200000100000,
100000100000100000000000000000000000200000000000,
000000000000200000000000000000000000200000000000,
000000100000100000100000100000100000200000100000,
100000100000200000100000100000100000200000100000,
100000100000100000000000000000000000000000000000,
300000000000000000300000000000100000100000100000,
100000000000200000100000100000100000200000100100,
100000000000000000000000000000100000100000100000,
100000000000200000100000100000100000200000100100,
100000000000000000000000000000000000000000100000,
100000100000200000100000100000100000200000100000,
000000100000100000100000000000100000100000100000,
200000100000100000700000000000000000000000000000,
000000000000000000000000000800000000000000100000,
000000100000200000200000100000100000200000200000,
100000100000100000100000000000000000000000100100,
100000100000100000100100100000100000100000100100,
100000100000100000100000200000000000200000000000,
100000100000200000200000100000100000200000200000,
100000100000100000100000000000000000000000100000,
100000100000200000200000100000100000100000000000,
300000000000000000300000000000300000000000100000,
000000100000200000200000100000100000200000200000,
100000100000100000100000000000000000000000100100,
100000100000100000100100100000100000100000100100,
100000100000100000100000200000000000200000000000,
100000100000200000200000100000100000200000200000,
100000100000100000100000000000000000000000100000,
100000100000200000200000200000000000500000000000,
000000000000000000000000000000000000000000008000,
000000000000000000000000200000000000200000000000,
100000000000200000100000000000200000100000000000,
000000200000000000000000200000000000200000000000,
100000000000200000100000000000200000500000000000,
000000000000000000000000000000008000000000000000,
100000100000100000100000100000100000000000200000,
000000200000100000000000000000000000000000000000,
#END
COURSE:Normal
LEVEL:6
SCOREINIT:960
SCOREDIFF:260
#START
100000000000000000100000000000000000100000000000,
000000200000000000000000200000000000200000000000,
300000000000000000300000000000000000300000000000,
000000000000000000000000000000000000000000000000,
100000000000000000200000000000000000200000000000,
100000000000000000200000000000000000200000000000,
100000000000000000200000000000000000100000100000,
000000000000000000000000000000000000000000000000,
100000000000000000200000000000000000200000000000,
100000000000000000200000000000000000200000000000,
100000000000000000200000000000000000000000000000,
100000000000100000000000100000100000000000000000,
000000000000100000000000100000100000200000000000,
100000100000200000000000100000100000200000000000,
100000000000100000000000000000000000200000000000,
000000000000200000000000000000000000200000200000,
000000000000100000000000100000100000200000000000,
100000100000200000000000100000100000200000000000,
100000100000100000000000000000000000000000000000,
300000000000000000300000000000000000300000000000,
000000000000100000000000100000100000200000000000,
100000100000200000000000100000100000200000000000,
100000000000100000100000000000000000200000000000,
000000000000200000000000000000000000200000000000,
000000000000100000000000100000100000200000000000,
100000100000200000000000100000100000200000000000,
100000100000100000000000000000000000000000000000,
300000000000000000300000000000000000000000000000,
100000000000100000100000000000100000000000100100,
100000000000000000000000000000000000000000000000,
100000000000100000100000000000100000000000100100,
100000000000000000000000000000000000000000000000,
100000100000200000000000100000100000200000000000,
100000100000100000100000000000100000100000000000,
100000000000500000000000000000000000000000000800,
000000000000000000000000000000000000000000100000,
000000100000200000000000100000100000200000000000,
100000000000100000100000000000000000000000000000,
100000000000100000000000100000100000100000000000,
100000100000100000000000200000000000200000000000,
100000100000200000000000100000100000200000000000,
100000000000100000100000000000000000000000000000,
100000000000100000000000100000100000100000000000,
200000000000000000200000000000200000000000100000,
000000100000200000000000100000100000200000000000,
100000000000100000100000000000000000000000000000,
100000000000100000000000100000100000100000000000,
100000100000100000000000200000000000200000000000,
100000100000200000000000100000100000200000000000,
100000000000100000100000000000000000000000100000,
100000100000100000100000000000000000500000000000,
000000000000000000000000000000000000000000000800,
000000000000000000000000000000000000000000000000,
100000000000000000100000000000000000100000000000,
000000200000000000000000200000000000200000000000,
300000000000000000300000000000000000500000000000,
000000000000000000000000000000000800000000000000,
100000100000100000100000100000100000000000100000,
000000100000100000000000000000000000000000000000,
#END
COURSE:Easy
LEVEL:4
SCOREINIT:1380
SCOREDIFF:550
#START
100000000000000000100000000000000000100000000000,
000000000000000000000000000000000000000000000000,
100000000000000000100000000000000000100000000000,
000000000000000000000000000000000000000000000000,
100000000000000000000000200000000000000000000000,
100000000000000000000000200000000000000000000000,
100000000000000000000000200000000000000000000000,
300000000000000000000000000000000000000000000000,
100000000000000000000000200000000000000000000000,
100000000000000000000000200000000000000000000000,
100000000000000000000000200000000000000000000000,
100000000000100000000000100000000000000000000000,
000000000000100000000000000000000000100000000000,
000000000000100000000000000000000000100000000000,
100000000000100000000000000000000000000000000000,
000000000000000000000000000000000000000000000000,
000000000000100000000000000000000000100000000000,
000000000000100000000000000000000000100000000000,
100000000000100000000000000000000000000000000000,
000000000000000000000000000000000000000000000000,
000000000000100000000000000000000000100000000000,
000000000000100000000000000000000000100000000000,
100000000000100000000000000000000000000000000000,
000000000000000000000000000000000000000000000000,
000000000000100000000000000000000000100000000000,
000000000000100000000000000000000000100000000000,
100000000000100000000000000000000000000000000000,
300000000000000000300000000000000000000000000000,
100000000000100000000000100000000000000000100000,
100000000000000000000000000000000000000000000000,
100000000000100000000000100000000000000000100000,
100000000000000000000000000000000000000000000000,
100000000000000000000000100000000000000000000000,
100000000000100000000000000000000000100000000000,
100000000000500000000000000000000000000000800000,
000000000000000000000000000000000000000000000000,
000000000000100000000000000000000000100000000000,
000000000000100000100000000000000000000000000000,
000000000000100000000000000000000000100000000000,
000000000000100000100000000000000000000000000000,
100000000000100000000000100000000000000000000000,
100000000000000000100000000000000000000000000000,
100000000000000000000000100000000000000000000000,
100000000000000000100000000000100000000000000000,
000000000000100000000000000000000000100000000000,
000000000000100000100000000000000000000000000000,
000000000000100000000000000000000000100000000000,
000000000000100000100000000000000000000000000000,
100000000000100000000000100000000000000000000000,
100000000000000000100000000000000000000000000000,
100000000000000000100000000000000000500000000000,
000000000000000000000000000000000000000000800000,
000000000000000000000000000000000000000000000000,
100000000000000000100000000000000000100000000000,
000000000000000000000000000000000000000000000000,
300000000000000000300000000000000000300000000000,
000000000000000000000000000000000000000000000000,
100000000000100000000000100000000000000000100000,
000000000000300000000000000000000000000000000000,
#END