forked from ESE/ESE
302 lines
12 KiB
Plaintext
302 lines
12 KiB
Plaintext
//TJADB Project
|
||
TITLE:Katsushika Rhapsody ~Yamu Yamu Version~
|
||
TITLEJA:葛飾ラプソディー ~ヤムヤムVersion~
|
||
SUBTITLE:--YUM! YUM! ORANGE/KochiKame: Tokyo Beat Cops
|
||
BPM:190
|
||
WAVE:Katsushika Rhapsody ~Yamu Yamu Version~.ogg
|
||
OFFSET:-4.342
|
||
DEMOSTART:30.381
|
||
|
||
COURSE:Oni
|
||
LEVEL:6
|
||
BALLOON:16
|
||
|
||
|
||
#START
|
||
|
||
|
||
000000000000000000000000000000000000000000000000,
|
||
100000100000200000000000100000100000200000000000,
|
||
100000100000200000200000000000000000000000000000,
|
||
100000100000200000200000100000100000200000200000,
|
||
000000100000200000100000200000000000000000000000,
|
||
100000000000200000100000000000100000200000100000,
|
||
100000000000200000100000000000100000200000000000,
|
||
100000000000200000100000000000100000200000100000,
|
||
100000000000200000100000000000100000200000000000,
|
||
100000000000200000100000000000100000200000100000,
|
||
100000000000200000100000000000100000200000000000,
|
||
100000100000200000000000100000100000000000500000,
|
||
000000000000000000000000000000000008000000000000,
|
||
100000100000200000200000100000000000200000000000,
|
||
100000100000200000200000100000000000200000000000,
|
||
100000100000200000200000100000000000200000000000,
|
||
100000100000200000200000000000000000000000000000,
|
||
100000000000200000200000100000000000200000200000,
|
||
100000000000200000200000100000100000200000200000,
|
||
300000000000000000000000000000000000000000000000,
|
||
300000300000000000300000000000000000000000000000,
|
||
100000000000200000000000100000000000200000100000,
|
||
000000100000200000100000100000000000200000000000,
|
||
100000000000200000000000100000000000200000100000,
|
||
000000100000200000100000100000200000200000100000,
|
||
100000000000200000000000100000000000200000100000,
|
||
000000100000200000100000000000200000200000000000,
|
||
100000000000200000000000100000000000200000100000,
|
||
100000200000200000200000200000100100100000000000,
|
||
100000000000200000100000000000100000200000100000,
|
||
100000000000200000100000000000100000200000200000,
|
||
100000000000200000100000000000100000200000100000,
|
||
100000000000200000100000000000100000200000200000,
|
||
100000000000200000100000000000100000200000100000,
|
||
100000000000200000100000000000100000200000200000,
|
||
100000100000200000000000100000000000100000100000,
|
||
000000000000100000200200200000200000200000200000,
|
||
100000100000200000200000100000000000200000000000,
|
||
100000100000200000200000100000000000200000000000,
|
||
100000100000200000200000100000000000200000000000,
|
||
100000100000200000200000000000000000000000000000,
|
||
100000000000200000200000100000000000200000200000,
|
||
100000000000200000200000100000100000200000200000,
|
||
300000000000000000000000000000000000000000000000,
|
||
500000000000000000000000000000000000000008000000,
|
||
700000000000000000000000000000000000800000000000,
|
||
000000000000000000000000000000000000000000000000,
|
||
100000000000200000200000100000100000200000100000,
|
||
000000100000200000100000100000200000200000000000,
|
||
100000000000200000200000100000100000200000100000,
|
||
000000100000200000100000100000200000200000100000,
|
||
100000000000200000200000100000100000200000100000,
|
||
000000100000200000100000000000200000200000200000,
|
||
100000000000200000000000100000000000200000100000,
|
||
100000000000200000200200200000200000100000100000,
|
||
500000000000000000000000000000000000000000000000,
|
||
000000000000000000000008000000000000000000100000,
|
||
000000200000100000200000100000100000200000200000,
|
||
000000100100100000200200200000000000000000000000,
|
||
|
||
|
||
#END
|
||
|
||
|
||
COURSE:Hard
|
||
LEVEL:4
|
||
BALLOON:12
|
||
SCOREINIT:1020
|
||
SCOREDIFF:270
|
||
|
||
|
||
#START
|
||
|
||
|
||
000000000000000000000000000000000000000000000000,
|
||
100000000000200000000000100000000000200000000000,
|
||
100000100000100000200000000000000000000000000000,
|
||
100000000000200000000000100000000000200000000000,
|
||
000000100000100000100000200000000000000000000000,
|
||
100000000000200000100000000000000000200000000000,
|
||
100000000000200000100000000000000000200000000000,
|
||
100000000000200000100000000000000000200000000000,
|
||
100000000000200000100000000000000000200000000000,
|
||
100000000000200000100000000000000000200000000000,
|
||
100000000000200000100000000000000000200000000000,
|
||
100000000000200000000000100000100000000000500000,
|
||
000000000000000000800000000000000000000000000000,
|
||
100000000000200000200000100000000000000000000000,
|
||
100000000000200000200000100000000000000000000000,
|
||
100000000000200000200000100000000000000000000000,
|
||
100000100000200000200000000000000000000000000000,
|
||
100000000000200000200000100000000000200000200000,
|
||
100000000000200000200000100000000000100000000000,
|
||
300000000000000000000000000000000000000000000000,
|
||
100000100000000000100000000000000000000000000000,
|
||
100000000000200000000000100000000000200000100000,
|
||
000000100000200000000000100000000000200000000000,
|
||
100000000000200000000000100000000000200000100000,
|
||
000000100000200000000000100000000000200000000000,
|
||
100000000000200000000000100000000000200000100000,
|
||
000000100000200000100000000000000000000000000000,
|
||
100000000000200000000000100000000000200000000000,
|
||
500000000000000000000000000000800000000000000000,
|
||
100000000000200000100000000000000000200000000000,
|
||
100000000000200000100000000000000000200000000000,
|
||
100000000000200000100000000000000000200000000000,
|
||
100000000000200000100000000000200000200000000000,
|
||
100000000000200000100000000000000000200000000000,
|
||
100000000000200000100000000000000000200000000000,
|
||
100000000000200000000000100000100000000000500000,
|
||
000000000000000000000000800000000000000000000000,
|
||
100000000000200000200000100000000000200000000000,
|
||
100000000000200000200000100000000000200000000000,
|
||
100000000000200000200000100000000000200000000000,
|
||
100000100000200000200000000000000000000000000000,
|
||
100000000000200000200000100000000000200000200000,
|
||
100000000000200000200000100000000000100000000000,
|
||
300000000000000000000000000000000000000000000000,
|
||
500000000000000000000000000000000000800000000000,
|
||
700000000000000000000000000000800000000000000000,
|
||
000000000000000000000000000000000000000000000000,
|
||
100000000000200000000000100000000000200000100000,
|
||
000000100000200000000000100000000000200000000000,
|
||
100000000000200000000000100000000000200000100000,
|
||
000000100000200000000000100000000000200000000000,
|
||
100000000000200000000000100000000000200000100000,
|
||
000000100000200000100000000000200000200000000000,
|
||
100000000000200000000000100000000000200000100000,
|
||
000000000000000000000000000000000000000000000000,
|
||
500000000000000000000000000000000000000000000000,
|
||
000000000000000000000000800000000000000000100000,
|
||
000000200000100000200000100000100000200000200000,
|
||
000000100000100000200000200000000000000000000000,
|
||
|
||
|
||
#END
|
||
|
||
|
||
COURSE:Normal
|
||
LEVEL:2
|
||
BALLOON:12
|
||
SCOREINIT:1350
|
||
SCOREDIFF:440
|
||
|
||
|
||
#START
|
||
|
||
|
||
000000000000000000000000000000000000000000000000,
|
||
100000000000100000000000100000000000000000000000,
|
||
100000000000000000100000000000000000000000000000,
|
||
100000000000100000000000100000000000000000000000,
|
||
000000100000000000000000100000000000000000000000,
|
||
000000000000100000000000000000000000100000000000,
|
||
000000000000100000100000000000000000000000000000,
|
||
000000000000100000000000000000000000100000000000,
|
||
000000000000100000100000000000000000000000000000,
|
||
000000000000100000000000000000000000100000000000,
|
||
000000000000100000100000000000000000000000000000,
|
||
100000000000100000000000100000000000000000000000,
|
||
500000000000000000000000800000000000000000000000,
|
||
100000000000000000000000100000000000000000000000,
|
||
100000000000100000000000100000000000000000000000,
|
||
100000000000000000000000100000000000000000000000,
|
||
100000000000100000100000000000000000000000000000,
|
||
100000000000000000000000100000000000000000000000,
|
||
100000000000100000000000100000000000000000000000,
|
||
300000000000000000000000000000000000000000000000,
|
||
100000000000000000100000000000000000000000000000,
|
||
000000000000100000000000000000000000100000000000,
|
||
000000000000100000000000000000000000200000200000,
|
||
000000000000100000000000000000000000100000000000,
|
||
000000000000100000000000000000000000200000200000,
|
||
000000000000100000000000000000000000100000000000,
|
||
000000000000200000200000000000000000000000000000,
|
||
100000000000100000000000100000000000000000000000,
|
||
500000000000000000000000000000800000000000000000,
|
||
000000000000100000000000000000000000100000000000,
|
||
000000000000100000100000000000000000000000000000,
|
||
000000000000100000000000000000000000100000000000,
|
||
000000000000100000100000000000000000000000000000,
|
||
000000000000100000000000000000000000100000000000,
|
||
000000000000100000100000000000000000000000000000,
|
||
100000000000100000000000100000000000000000000000,
|
||
500000000000000000000000000000800000000000000000,
|
||
100000000000000000000000100000000000000000000000,
|
||
100000000000100000000000100000000000000000000000,
|
||
100000000000000000000000100000000000000000000000,
|
||
100000000000100000100000000000000000000000000000,
|
||
100000000000000000000000100000000000000000000000,
|
||
100000000000100000000000100000000000000000000000,
|
||
300000000000000000000000000000000000000000000000,
|
||
500000000000000000000000000000800000000000000000,
|
||
700000000000000000000000000000800000000000000000,
|
||
000000000000100000000000000000000000100000000000,
|
||
000000000000100000000000000000000000200000200000,
|
||
000000000000100000000000000000000000100000000000,
|
||
000000000000100000000000000000000000200000200000,
|
||
000000000000100000000000000000000000100000000000,
|
||
000000000000200000200000000000000000000000000000,
|
||
100000000000100000000000100000000000000000000000,
|
||
500000000000000000000000800000000000000000000000,
|
||
500000000000000000000000000000000000000000000000,
|
||
000000000000000000800000000000000000000000000000,
|
||
100000000000100000000000100000000000100000000000,
|
||
000000000000300000000000300000000000000000000000,
|
||
|
||
|
||
#END
|
||
|
||
|
||
COURSE:Easy
|
||
LEVEL:2
|
||
BALLOON:12
|
||
SCOREINIT:1680
|
||
SCOREDIFF:930
|
||
|
||
|
||
#START
|
||
|
||
|
||
000000000000000000000000000000000000000000000000,
|
||
100000000000000000000000000000000000000000000000,
|
||
100000000000100000000000100000000000000000000000,
|
||
100000000000000000000000000000000000000000000000,
|
||
100000000000100000000000100000000000000000000000,
|
||
000000000000100000000000000000000000100000000000,
|
||
000000000000100000000000000000000000100000000000,
|
||
000000000000100000000000000000000000100000000000,
|
||
500000000000000000800000000000000000000000000000,
|
||
000000000000100000000000000000000000100000000000,
|
||
000000000000100000000000000000000000000000000000,
|
||
100000000000000000000000100000000000000000000000,
|
||
500000000000000000000000800000000000000000000000,
|
||
100000000000000000000000000000000000000000000000,
|
||
200000000000000000000000000000000000000000000000,
|
||
100000000000000000000000100000000000000000000000,
|
||
100000000000000000000000000000000000000000000000,
|
||
100000000000000000000000100000000000000000000000,
|
||
100000000000000000000000000000000000000000000000,
|
||
300000000000000000000000000000000000000000000000,
|
||
500000000000000000800000000000000000000000000000,
|
||
000000000000100000000000000000000000100000000000,
|
||
000000000000100000000000000000000000100000000000,
|
||
000000000000100000000000000000000000100000000000,
|
||
000000000000100000000000000000000000100000000000,
|
||
000000000000100000000000000000000000100000000000,
|
||
000000000000100000000000100000000000000000000000,
|
||
100000000000000000000000100000000000000000000000,
|
||
500000000000000000000000000000800000000000000000,
|
||
000000000000100000000000000000000000100000000000,
|
||
000000000000100000000000000000000000100000000000,
|
||
000000000000100000000000000000000000100000000000,
|
||
500000000000000000800000000000000000000000000000,
|
||
000000000000100000000000000000000000100000000000,
|
||
000000000000100000000000000000000000000000000000,
|
||
100000000000000000000000100000000000000000000000,
|
||
500000000000000000000000800000000000000000000000,
|
||
100000000000000000000000000000000000000000000000,
|
||
200000000000000000000000000000000000000000000000,
|
||
100000000000000000000000100000000000000000000000,
|
||
100000000000000000000000000000000000000000000000,
|
||
100000000000000000000000100000000000000000000000,
|
||
100000000000000000000000000000000000000000000000,
|
||
300000000000000000000000000000000000000000000000,
|
||
500000000000000000000000000000800000000000000000,
|
||
700000000000000000000000000000800000000000000000,
|
||
000000000000000000000000000000000000000000000000,
|
||
000000000000100000000000000000000000100000000000,
|
||
000000000000100000000000000000000000100000000000,
|
||
000000000000100000000000000000000000100000000000,
|
||
000000000000100000000000000000000000100000000000,
|
||
000000000000100000000000000000000000100000000000,
|
||
000000000000100000000000100000000000000000000000,
|
||
100000000000000000000000100000000000000000000000,
|
||
500000000000000000800000000000000000000000000000,
|
||
500000000000000000000000000000000000000000000000,
|
||
000000000000000000800000000000000000000000000000,
|
||
000000000000100000000000000000000000100000000000,
|
||
000000000000300000000000300000000000000000000000,
|
||
|
||
|
||
#END
|
||
|