forked from ESE/ESE
242 lines
3.1 KiB
Plaintext
242 lines
3.1 KiB
Plaintext
//TJADB Project
|
|
TITLE:Kaze no Toori Michi
|
|
TITLEJA:風のとおり道
|
|
SUBTITLE:--Joe Hisaishi/My Neighbor Totoro
|
|
SUBTITLEJA:「となりのトトロ」より
|
|
BPM:86
|
|
WAVE:Kaze no Toori Michi.ogg
|
|
OFFSET:-5.513
|
|
DEMOSTART:15.968
|
|
|
|
COURSE:Oni
|
|
LEVEL:7
|
|
BALLOON:20,20,20,70
|
|
SCOREINIT:940
|
|
SCOREDIFF:245
|
|
|
|
|
|
#START
|
|
|
|
|
|
2220202000000000,
|
|
500000000000000000000000000000000008000000000000,
|
|
2220202000000000,
|
|
7000000000801022,
|
|
1020101202102012,
|
|
1010201202101022,
|
|
1010201202112012,
|
|
1010221020001022,
|
|
1020101202102012,
|
|
1010201202101022,
|
|
1010201202112012,
|
|
500000000000000000000008000000000000100000200200,
|
|
1020101202102012,
|
|
1010201202101022,
|
|
1010201202112012,
|
|
1010221020001022,
|
|
1020101202102012,
|
|
1010201202101022,
|
|
1121202211212012,
|
|
500000000000000000000008000000000000000000000000,
|
|
1010201211202022,
|
|
1010201211201021,
|
|
1010201211202022,
|
|
500000000000000000000008000000000000000000000000,
|
|
1010201211202022,
|
|
1010201211201021,
|
|
1010201211202022,
|
|
7000000000801022,
|
|
|
|
#GOGOSTART
|
|
1020101202112012,
|
|
1010201202121022,
|
|
1010201202112012,
|
|
1010221020001022,
|
|
1020101202112012,
|
|
1010201202121022,
|
|
1111202211112012,
|
|
70000814,
|
|
|
|
#GOGOEND
|
|
11221020,
|
|
12112020,
|
|
11223030,
|
|
32114000,
|
|
3,
|
|
7,
|
|
,
|
|
08000000,
|
|
|
|
|
|
#END
|
|
|
|
|
|
COURSE:Hard
|
|
LEVEL:4
|
|
BALLOON:16,13,13,50
|
|
SCOREINIT:1030
|
|
SCOREDIFF:270
|
|
|
|
|
|
#START
|
|
|
|
|
|
2220202000000000,
|
|
500000000000000000000000000000000008000000000000,
|
|
2220202000000000,
|
|
7008,
|
|
10112022,
|
|
10112022,
|
|
11121112,
|
|
10112000,
|
|
10112022,
|
|
10112022,
|
|
11121112,
|
|
500000000000000000000008000000000000000000000000,
|
|
10112022,
|
|
10112022,
|
|
11121112,
|
|
10112022,
|
|
10112022,
|
|
10112022,
|
|
11121112,
|
|
500000000000000000000008000000000000000000000000,
|
|
11212000,
|
|
11221020,
|
|
11211000,
|
|
500000000000000000000008000000000000000000000000,
|
|
11212000,
|
|
11221020,
|
|
11210121,
|
|
70000800,//28
|
|
|
|
#GOGOSTART
|
|
10112022,
|
|
10112022,
|
|
11121112,
|
|
10212022,
|
|
10112022,
|
|
10112022,
|
|
11121112,
|
|
70000812,//36
|
|
|
|
#GOGOEND
|
|
1012,
|
|
1022,
|
|
1033,
|
|
34,
|
|
3,
|
|
9,
|
|
,
|
|
90000008,
|
|
#END
|
|
|
|
COURSE:Normal
|
|
LEVEL:3
|
|
BALLOON:11,8,8,30
|
|
|
|
#START
|
|
22,
|
|
500000000000000000000000000000000008000000000000,
|
|
22,
|
|
7008,
|
|
1120,
|
|
1120,
|
|
11101110,
|
|
20222000,
|
|
1120,
|
|
1120,
|
|
11101110,
|
|
500000000000000000000008000000000000000000000000,
|
|
1120,
|
|
1120,
|
|
11101110,
|
|
20222000,
|
|
1120,
|
|
1120,
|
|
11101110,
|
|
500000000000000000000008000000000000000000000000,
|
|
11011000,
|
|
11022000,
|
|
11011000,
|
|
500000000000000000000008000000000000000000000000,
|
|
11011000,
|
|
11022000,
|
|
11110000,
|
|
70000800,//28
|
|
|
|
#GOGOSTART
|
|
1120,
|
|
1120,
|
|
11101110,
|
|
20222000,
|
|
1120,
|
|
1120,
|
|
11101110,
|
|
70000800,//36
|
|
|
|
#GOGOEND
|
|
1011,
|
|
1022,
|
|
2033,
|
|
34,
|
|
3,
|
|
9,
|
|
,
|
|
90000008,
|
|
#END
|
|
|
|
COURSE:Easy
|
|
LEVEL:2
|
|
BALLOON:8,8,8,30
|
|
|
|
#START
|
|
2,
|
|
500000000000000000000000000000000008000000000000,
|
|
2,
|
|
7008,
|
|
12,
|
|
12,
|
|
1110,
|
|
2220,
|
|
12,
|
|
12,
|
|
1111,
|
|
500000000000000000000008000000000000000000000000,
|
|
12,
|
|
12,
|
|
1110,
|
|
2220,
|
|
12,
|
|
12,
|
|
1111,
|
|
500000000000000000000008000000000000000000000000,
|
|
10010000,
|
|
10010000,
|
|
10010000,
|
|
500000000000000000000008000000000000000000000000,
|
|
10010000,
|
|
10010000,
|
|
10010000,
|
|
70000800,//28
|
|
|
|
#GOGOSTART
|
|
12,
|
|
12,
|
|
1110,
|
|
2220,
|
|
12,
|
|
12,
|
|
1111,
|
|
70000800,//36
|
|
|
|
#GOGOEND
|
|
1011,
|
|
1,
|
|
1011,
|
|
12,
|
|
3,
|
|
9,
|
|
,
|
|
90000008,
|
|
#END |