Files

471 lines
4.5 KiB
Plaintext

//TJADB Project
TITLE:Kill Me no Baby!
TITLEJA:キルミーのベイベー!
SUBTITLE:--EXPO feat. Chinatsu Akasaki/Kill Me Baby!
SUBTITLEJA:「キルミーベイベー」より
BPM:200
WAVE:Kill Me no Baby!.ogg
OFFSET:-1.911
DEMOSTART:13.911
COURSE:Oni
LEVEL:9
BALLOON:49
SCOREINIT:530
SCOREDIFF:120
#START
2222,
2222111211121112,
#GOGOSTART
1020102010201022,
1020102210101020,
1020102010221020,
2010201020102011,
1020102010221020,
1022102010201022,
11121112,
2222222220003000,
#GOGOEND
1022102010100020,
0020102220102010,
1022102010100020,
1011101020102000,
1022102010100020,
1012101020102010,
1022102010100020,
2222222222222000,
1020102010101022,
21121120,
1020102010101022,
21121120,
1022201010222010,
1022101000102020,
1022202220100030,
0011101110102010,
#MEASURE 5/8
12122,
#MEASURE 2/4
1212,
#MEASURE 5/8
12122,
#MEASURE 2/4
1122,
#MEASURE 3/8
112,
#MEASURE 5/8
11222,
#MEASURE 2/4
1212,
#MEASURE 5/8
11222,
#MEASURE 2/4
1112,
#MEASURE 3/8
444,
#MEASURE 4/4
7,
7,
7,
7778000022222000,
1022102010100020,
1012102120102010,
1022102010100020,
1020202210222022,
1022102010100020,
1012201120102010,
1022102010100020,
1111201030002000,
1020102010101022,
21121120,
1020102010101022,
21121120,
1022201010222010,
1022101000102020,
1022202220100030,
0011101110102010,
#GOGOSTART
1020102210201020,
1020102210201020,
100000200200100000200000200000202020200000100000,
21214444,
1011102220102010,
2011102220102010,
2011102020111020,
2222222220001000,
1022102020102011,
1022102030403040,
1022102020102011,
1022102055804000,
1022102020102010,
1022102040304030,
1022102020102010,
2222222222222000,
2222222222222000,
2222222222222000,
3,
#GOGOEND
#END
COURSE:Hard
LEVEL:8
BALLOON:40
SCOREINIT:470
SCOREDIFF:130
#START
#SCROLL 0.85
2222,
2222222222222000,
#GOGOSTART
12121212,
12121212,
1020102010222010,
2010201020102011,
11121121,
11121121,
11121112,
21221030,
#GOGOEND
12121102,
12112121,
12121102,
1011101020002000,
12121102,
11122121,
12121102,
11223000,
1000100010101022,
21121010,
1000100010101022,
21121010,
1022201010222010,
10110122,
12212205,
00000800,
#MEASURE 5/8
22111,
#MEASURE 2/4
2222,
#MEASURE 5/8
11111,
#MEASURE 2/4
2222,
#MEASURE 3/8
111,
#MEASURE 5/8
22222,
#MEASURE 2/4
1111,
#MEASURE 5/8
22222,
#MEASURE 2/4
1111,
#MEASURE 3/8
222,
#MEASURE 4/4
7,
0,
0,
8000000022222000,
12121102,
1011102020102010,
12121102,
1011102010001000,
12121102,
1011102220102010,
12121102,
11223000,
1000100010101022,
21121120,
1000100010101022,
21121120,
1022201010222010,
10110122,
12222105,
00000800,
#GOGOSTART
12121212,
12121212,
1020102010222010,
2010201020102011,
11121121,
11121121,
11121112,
21221030,
12121212,
12112121,
12121212,
10113040,
12121212,
12122121,
12121210,
12121210,
2222222222222000,
2222222222222000,
3,
#GOGOEND
#END
COURSE:Normal
LEVEL:5
BALLOON:6,32,16
SCOREINIT:650
SCOREDIFF:160
#START
#SCROLL 0.75
0,
70000800,
#GOGOSTART
1110,
11101000,
10101110,
1110,
11101000,
11101000,
11101110,
1130,
#GOGOEND
3333,
1122,
3333,
10111000,
3333,
1122,
3333,
1130,
10101110,
0202,
10101110,
0202,
0110,
1101,
10101105,
08,
#MEASURE 5/8
10100,
#MEASURE 2/4
1,
#MEASURE 5/8
1,
#MEASURE 2/4
1,
#MEASURE 3/8
1,
#MEASURE 5/8
10100,
#MEASURE 2/4
1,
#MEASURE 5/8
1,
#MEASURE 2/4
1,
#MEASURE 3/8
222,
#MEASURE 4/4
7,
0,
0,
8,
3333,
1122,
3333,
11011000,
3333,
1122,
3333,
1130,
10101110,
0202,
10101110,
0202,
0110,
1101,
10101103,
0,
#GOGOSTART
1110,
11101000,
10101110,
1110,
11101000,
11101000,
11101110,
1130,
3344,
1122,
3344,
10111000,
3344,
1122,
3344,
3344,
7,
08,
3,
#GOGOEND
#END
COURSE:Easy
LEVEL:4
BALLOON:6,30,12
SCOREINIT:540
SCOREDIFF:160
#START
#SCROLL 0.75
0,
0,
#GOGOSTART
11,
1110,
11,
1110,
1110,
1110,
11,
2220,
#GOGOEND
3333,
0,
4444,
0,
3333,
0,
4444,
03,
1111,
0,
1111,
0,
0110,
1101,
10001003,
0,
#MEASURE 5/8
7,
#MEASURE 2/4
,
#MEASURE 5/8
9,
#MEASURE 2/4
,
#MEASURE 3/8
,
#MEASURE 5/8
,
#MEASURE 2/4
0800,
#MEASURE 5/8
,
#MEASURE 2/4
,
#MEASURE 3/8
,
#MEASURE 4/4
11,
1110,
1110,
3,
3344,
0,
3344,
0,
3344,
0,
3344,
03,
1111,
0,
1111,
0,
0110,
1101,
10001003,
0,
#GOGOSTART
11,
1110,
11,
1110,
1110,
1110,
11,
2220,
3344,
0,
3344,
0,
3344,
0,
3434,
3434,
7,
08,
3,
#GOGOEND
#END