Files
2023-06-15 19:15:39 -05:00

272 lines
8.7 KiB
Plaintext

//TJADB Project
TITLE:Kimi ga Shuyaku Sa!
TITLEJA:君が主役さっ!
SUBTITLE:--MM Gakuen Gasshou-bu/Gokujou‼ Mecha Mote Iinchou
SUBTITLEJA:「極上!!めちゃモテ委員長」より
BPM:140
WAVE:Kimi ga Shuyaku Sa!.ogg
OFFSET:-2.566
DEMOSTART:53.969
COURSE:Oni
LEVEL:6
BALLOON:22
SCOREINIT:800
SCOREDIFF:180
#START
1000200010102011,
1000200010102011,
#BPMCHANGE 140.36
1000201000102011,
1000101020202220,
500000000000000000000000000000000008000000000000,
4004004030112000,
#BPMCHANGE 140
10210121,
1000201000112010,
1021202,
2010201000112010,
10210121,
0010201120112000,
1122200011222000,
1022102210202000,
10210122,
1010201120102020,
10210121,
0010201000221000,
1011202010102000,
1011201000102010,
1011202010102011,
1222,
#GOGOSTART
1010221010102010,
0020102210102010,
1010221010102010,
0020102210102010,
1000201110112010,
0020102210102000,
1010201110102010,
0011201120112000,
1010221010102010,
0020102210102010,
1010221010102010,
0020102210102010,
1000201110102210,
0010202210102020,
1010201110112010,
0011201120112022,
1010201110102010,
0011201120112022,
1000200010102011,
1000200010102011,
1000201000112011,
1000101020202220,
500000000000000000000000000000000008000000000000,
4004004030112000,
#GOGOEND
700000000000000000000000000000000000000000000008,
#END
COURSE:Hard
LEVEL:5
BALLOON:13
SCOREINIT:870
SCOREDIFF:210
#START
100000000000200000000000100000100000200000000000,
100000000000200000000000100000100000200000000000,
#BPMCHANGE 140.36
100000000000200000100000000000100000200000000000,
100000000000100000100000200000200000100100100000,
500000000000000000000000000000000800000000000000,
300000000300000000300000300000000000200000000000,
#BPMCHANGE 140
100000000000100000100000000000200000200000000000,
100000000000100000100000000000200000200000000000,
100000000000100000100000200000000000200000000000,
100000000000100000100000000000200000200000000000,
100000000000100000100000000000200000200000100000,
000000100000200000000000100000100000200000000000,
100000000000200000000000100000100000200000000000,
200000000000200000000000200000000000000000000000,
100000000000200000100000000000100000200000100000,
000000100000200000000000200000000000200000200000,
100000000000200000100000000000100000200000100000,
000000100000200000100000000000200000000000000000,
100000000000200000000000100000100000200000000000,
100000000000200000000000100000100000200000000000,
100000000000200000200000100000100000200000000000,
100000000000000000000000000000000000000000000000,
#GOGOSTART
100000000000200000100100100000100000200000100000,
000000200000200000000000100000100000200000100000,
100000000000200000100100100000100000200000100000,
000000200000200000100000100000200000000000000000,
100000100000200000000000100000100000200000100000,
000000100000200000200000100000100000200000000000,
100000100000200000000000100100100000200000100000,
000000200000200000000000200000000000200000000000,
100000000000200000100100100000100000200000100000,
000000200000200000000000100000100000200000100000,
100000000000200000100100100000100000200000100000,
000000200000200000100000100000200000000000000000,
100000100000200000000000100000100000200000100000,
000000100000200000200000100000100000200000000000,
100000100000200000000000100100100000200000100000,
000000200000200000000000200000000000200000000000,
100000100000200000000000100100100000200000100000,
000000200000200000000000200000000000200000000000,
100000000000200000000000100000100000200000000000,
100000000000200000000000100000100000200000000000,
100000000000200000100000000000100000200000100000,
100000000000100000100000200000200000100100100000,
500000000000000000000000000000000800000000000000,
300000000300000000300000300000000000200000000000,
#GOGOEND
700000000000000000000000000000000000000000000008,
#END
COURSE:Normal
LEVEL:4
SCOREINIT:1070
SCOREDIFF:320
#START
100000000000100000000000100000000000000000000000,
100000000000100000000000100000000000000000000000,
#BPMCHANGE 140.36
100000000000100000100000000000100000100000000000,
100000000000000000000000200000000000200000000000,
500000000000000000000000000000000000000000800000,
000000000000000000000000000000000000000000000000,
#BPMCHANGE 140
100000000000000000000000100000000000100000000000,
100000000000000000000000100000000000100000000000,
100000000000000000000000200000000000000000000000,
200000000000000000000000000000000000000000000000,
100000000000100000000000100000000000000000000000,
100000000000100000000000100000000000000000000000,
200000000000000000000000200000000000000000000000,
200000000000200000000000200000000000000000000000,
100000000000100000100000100000000000100000000000,
100000000000000000000000200000000000200000000000,
100000000000100000100000100000000000100000000000,
100000000000000000000000000000000000000000000000,
100000000000100000000000200000000000000000000000,
100000000000100000000000200000000000000000000000,
100000000000100000000000200000200000200000000000,
300000000000000000000000000000000000000000000000,
#GOGOSTART
100000000000100000000000100000000000100000100000,
000000100000100000000000200000000000000000000000,
100000000000100000000000100000000000100000100000,
000000100000100000000000200000000000000000000000,
100000000000100000000000200000000000000000000000,
100000000000100000000000200000000000000000000000,
300000000000300000000000300000000000300000000000,
400000000000000000000000000000000000000000000000,
100000000000100000000000100000000000100000100000,
000000100000100000000000200000000000000000000000,
100000000000100000000000100000000000100000100000,
000000100000100000000000200000000000000000000000,
100000000000100000000000200000000000000000000000,
100000000000100000000000200000000000000000000000,
300000000000300000000000300000000000300000000000,
400000000000000000000000000000000000000000000000,
300000000000300000000000300000000000300000000000,
400000000000000000000000000000000000000000000000,
100000000000200000000000100000000000200000000000,
100000000000200000000000100000000000200000000000,
100000000000100000100000000000100000100000000000,
100000000000000000000000200000000000200000000000,
500000000000000000000000000000000000000000000000,
000000000000000000800000000000000000000000000000,
#GOGOEND
#END
COURSE:Easy
LEVEL:3
SCOREINIT:930
SCOREDIFF:400
#START
300000000000000000000000300000000000000000000000,
300000000000300000000000300000000000000000000000,
#BPMCHANGE 140.36
300000000000000000000000000000000000000000000000,
300000000000000000000000000000000000000000000000,
600000000000000000000000000000000000000000800000,
000000000000000000000000000000000000000000000000,
#BPMCHANGE 140
100000000000000000000000100000000000000000000000,
100000000000000000000000000000000000000000000000,
100000000000000000000000100000000000000000000000,
200000000000000000000000000000000000000000000000,
100000000000000000000000100000000000000000000000,
100000000000000000000000000000000000000000000000,
200000000000000000000000200000000000000000000000,
200000000000000000000000000000000000000000000000,
100000000000100000000000100000000000000000000000,
100000000000000000000000000000000000000000000000,
100000000000100000000000100000000000000000000000,
100000000000000000000000000000000000000000000000,
100000000000000000000000100000000000000000000000,
200000000000000000000000200000000000000000000000,
100000000000100000000000100000000000000000000000,
100000000000000000000000000000000000000000000000,
#GOGOSTART
100000000000100000000000100000000000000000000000,
100000000000100000000000200000000000000000000000,
100000000000100000000000100000000000000000000000,
100000000000100000000000200000000000000000000000,
100000000000000000000000100000000000000000000000,
100000000000100000000000100000000000000000000000,
100000000000100000000000100000000000000000000000,
400000000000000000000000000000000000000000000000,
100000000000100000000000100000000000000000000000,
100000000000100000000000200000000000000000000000,
100000000000100000000000100000000000000000000000,
100000000000100000000000200000000000000000000000,
100000000000000000000000100000000000000000000000,
100000000000100000000000100000000000000000000000,
100000000000100000000000100000000000000000000000,
400000000000000000000000000000000000000000000000,
100000000000100000000000100000000000000000000000,
400000000000000000000000000000000000000000000000,
300000000000000000000000300000000000000000000000,
300000000000300000000000300000000000000000000000,
300000000000000000000000000000000000000000000000,
400000000000000000000000400000000000000000000000,
600000000000000000000000000000000000000000000000,
000000000000000000800000000000000000000000000000,
#GOGOEND
#END