Files
ESE-ja-fix/02 Anime/Kimi ni Kono Koe ga Todoki Masu You ni/Kimi ni Kono Koe ga Todoki Masu You ni.tja
2023-06-15 19:05:10 -05:00

951 lines
32 KiB
Plaintext

//TJADB Project
TITLE:Kimi ni Kono Koe ga Todoki Masu You ni
TITLEJA:NO MORE CRY
SUBTITLE:--Kaoru Okubo feat. Takayoshi Tanimoto/Zatch Bell‼
SUBTITLEJA:TVドラマ「ごくせん」より
BPM:172
WAVE:Kimi ni Kono Koe ga Todoki Masu You ni.ogg
OFFSET:-2.858
DEMOSTART:62.551
COURSE:Oni
LEVEL:8
STYLE:Double
BALLOON:12
#START P1
000000000000000000000000000000000000000000000000,
300000200000200000100000200000200000100000100000,
#GOGOSTART
000000100000200000100100100000100000200000100000,
000000100000200000000000000000000000000000100000,
000000100000200000100100100000100000200000100000,
000000100000100000000000000000000000000000000000,
200000000000200000100000200000100100200000100000,
200000000000200000100000200000100100200000100000,
200000000000200000100000200000100100200000100000,
000000100100100000100000200000100000200000000000,
100000000000200000000000100000100000200000100000,
000000100000200000100000100000100000200000100000,
000000100000200000000000100000100000200000100000,
000000100000100000200000100100100000200000000000,
100000000000200000000000100000100000200000100000,
000000000000100000000100100000100000200000100000,
100000200000200000100000000000100000000000100000,
000000100100100000100000100000300000000000000000,
#GOGOEND
11212211,
21221122,
11212211,
21221122,
11212211,
21221122,
11212211,
22120330,
1000101010101110,
1000101010101120,
1000101010101110,
2000101010101120,
1010101010101110,
1010101010101120,
11111121,
3030004000101110,
10202120,
00010110,
33000013,
00130122,
100000100000200000000000100000100000200000000000,
100000100000200000100000100000100000200000100000,
300000000000200000300000000000300000000000300000,
100000100000200000100100100000100000200000100000,
300000300000300000300000000000000000000000100000,
#GOGOSTART
000000100000200000100100100000100000200000100000,
000000100000200000000000200000200200200000100000,
000000100000200000100100100000100000200000100000,
000000100000200000000000200000100000200000200000,
100000000000200000100000200000100100200000100000,
200000000000200000100000200000100100200000100000,
200000000000200000100000200000100100200000100000,
000000000000100000200000100100200000000000100000,
000000100000200000100000100000100100200000100000,
000000100000200000000000200000200200200000100000,
000000100000200000100000100000100100200000100000,
000000100000200000000000200000100000200200200000,
100000000000200000100000200000100100200000100000,
200000000000200000100000200000100100200000100000,
200000000000200000100000200000100100200000100000,
000000100100100000100000200000100000400000000000,
100000000000000000000000900000000000000000000000,
#GOGOEND
000000000000000000000000000000000000000000000008,
#END
#START P2
000000000000000000000000000000000000000000000000,
300000200000200000100000200000200000100000100000,
#GOGOSTART
000000100000200000100100100000100000200000100000,
000000100000200000000000000000000000000000100000,
000000100000200000100100100000100000200000100000,
000000100000100000000000000000000000000000000000,
200000000000200000100000200000100100200000100000,
200000000000200000100000200000100100200000100000,
200000000000200000100000200000100100200000100000,
000000100100100000100000200000100000200000000000,
100000000000200000000000100000100000200000100000,
000000100000200000100000100000100000200000100000,
000000100000200000000000100000100000200000100000,
000000100000100000200000100100100000200000000000,
100000000000200000000000100000100000200000100000,
000000000000100000000100100000100000200000100000,
100000200000200000100000000000100000000000100000,
000000100100100000100000100000300000000000000000,
#GOGOEND
1000101010101101,
1000101010101120,
1000101010101110,
1000101010101120,
1010101010101110,
1010101010101120,
11111122,
22120330,
11212211,
21221122,
11212211,
21221122,
11212211,
21221122,
11212211,
3030004000101110,
10000111,
00202120,
33000013,
00130122,
100000100000200000000000100000100000200000000000,
100000100000200000100000100000100000200000100000,
300000000000200000300000000000300000000000300000,
100000100000200000100100100000100000200000100000,
300000300000300000300000000000000000000000100000,
#GOGOSTART
000000100000200000100100100000100000200000100000,
000000100000200000000000200000200200200000100000,
000000100000200000100100100000100000200000100000,
000000100000200000000000200000100000200000200000,
100000000000200000100000200000100100200000100000,
200000000000200000100000200000100100200000100000,
200000000000200000100000200000100100200000100000,
000000000000100000200000100100200000000000100000,
000000100000200000100000100000100100200000100000,
000000100000200000000000200000200200200000100000,
000000100000200000100000100000100100200000100000,
000000100000200000000000200000100000200200200000,
100000000000200000100000200000100100200000100000,
200000000000200000100000200000100100200000100000,
200000000000200000100000200000100100200000100000,
000000100100100000100000200000100000400000000000,
100000000000000000000000900000000000000000000000,
#GOGOEND
000000000000000000000000000000000000000000000008,
#END
STYLE:Single
BALLOON:12
#START
000000000000000000000000000000000000000000000000,
300000200000200000100000200000200000100000100000,
#GOGOSTART
000000100000200000100100100000100000200000100000,
000000100000200000000000000000000000000000100000,
000000100000200000100100100000100000200000100000,
000000100000100000000000000000000000000000000000,
200000000000200000100000200000100100200000100000,
200000000000200000100000200000100100200000100000,
200000000000200000100000200000100100200000100000,
000000100100100000100000200000100000200000000000,
100000000000200000000000100000100000200000100000,
000000100000200000100000100000100000200000100000,
000000100000200000000000100000100000200000100000,
000000100000100000200000100100100000200000000000,
100000000000200000000000100000100000200000100000,
000000000000100000000100100000100000200000100000,
100000200000200000100000000000100000000000100000,
000000100100100000100000100000300000000000000000,
#GOGOEND
100000100000200000100000200000200000100000100000,
200000100000200000200000100000100000200000200000,
100000100000200000100000200000200000100000100000,
200000100000200000200000100000100000200000200000,
100000100000200000100000200000200000100000100000,
200000100000200000200000100000100000200000200000,
100000100000200000100000200000200000100000100000,
200000200000100000200000000000300000300000000000,
100000100000200000100000200000200000100000100000,
200000100000200000200000100000100000200000200000,
100000100000200000100000200000200000100000100000,
200000100000200000200000100000100000200000200000,
100000100000200000100000200000200000100000100000,
200000100000200000200000100000100000200000200000,
100000100000200000100000200000200000100000100000,
300000300000000000400000000000100000100100100000,
100000000000200000000000200000100000200000100000,
000000000000200000100000000000100000100000000000,
300000300000000000000000000000000000100000300000,
000000000000100000300000000000100000200000200000,
100000100000200000000000100000100000200000000000,
100000100000200000100000100000100000200000100000,
300000000000200000300000000000300000000000300000,
100000100000200000100100100000100000200000100000,
300000300000300000300000000000000000000000100000,
#GOGOSTART
000000100000200000100100100000100000200000100000,
000000100000200000000000200000200200200000100000,
000000100000200000100100100000100000200000100000,
000000100000200000000000200000100000200000200000,
100000000000200000100000200000100100200000100000,
200000000000200000100000200000100100200000100000,
200000000000200000100000200000100100200000100000,
000000000000100000200000100100200000000000100000,
000000100000200000100000100000100100200000100000,
000000100000200000000000200000200200200000100000,
000000100000200000100000100000100100200000100000,
000000100000200000000000200000100000200200200000,
100000000000200000100000200000100100200000100000,
200000000000200000100000200000100100200000100000,
200000000000200000100000200000100100200000100000,
000000100100100000100000200000100000400000000000,
100000000000000000000000900000000000000000000000,
#GOGOEND
000000000000000000000000000000000000000000000008,
#END
COURSE:Hard
LEVEL:6
STYLE:Double
BALLOON:10
SCOREINIT:890
SCOREDIFF:160
#START P1
300000000000000000000000000000000000000000100000,
#GOGOSTART
000000100000100000100100100000100000000000100000,
000000100000100000000000000000000000000000100000,
000000100000100000100100100000100000000000100000,
000000100000200000000000000000000000000000000000,
200000000000200000100000200000000000200000100000,
200000000000200000100000200000100000200000000000,
200000000000200000000000200000100100100000100000,
000000000000000000000000100000000000200000000000,
100000000000200000000000100000000000200000100000,
000000000000200000000000100000000000200000100000,
000000000000200000000000100000000000200000100000,
000000100000200000000000100000100000200000000000,
100000000000200000000000100000000000200000100000,
000000000000000000000000000000100000000000100000,
100000200000200000100000000000100000000000100000,
000000000000000000000000000000300000000000000000,
#GOGOEND
10212210,
20220022,
10212210,
20220022,
10212210,
20220022,
10212210,
11010000,
10111122,
10111121,
10111122,
10111121,
10111122,
10111121,
10111122,
00000110,
1222,
0222,
11000011,
00330112,
100000100000200000000000100000100000200000000000,
100000100000200000000000100000100000200000000000,
100000000000200000100000000000100000000000500000,
000000000000000000000000000000000000800000000000,
100000100000100000100000000000000000000000100000,
#GOGOSTART
000000100000100000100100100000100000000000100000,
000000100000100000000000200000100000200000100000,
000000100000100000100100100000100000000000100000,
000000100000200000000000200000100000200000200000,
100000000000200000100000200000000000200000100000,
200000000000200000100000200000100000200000000000,
200000000000200000000000100000100000200000100000,
000000000000100000100000100100100000000000100000,
000000100000100000100100100000100000000000100000,
000000100000100000000000200000100000200000100000,
000000100000100000100100100000100000000000100000,
000000100000200000000000200000100000200000200000,
100000000000200000100000200000000000200000100000,
200000000000200000100000200000100000200000000000,
200000000000200000000000200000100100100000100000,
000000000000000000000000100000000000400000000000,
100000000000000000900000000000000000000000000000,
#GOGOEND
000000000000000000000000000000000000000000000008,
#END
#START P2
300000000000000000000000000000000000000000100000,
#GOGOSTART
000000100000100000100100100000100000000000100000,
000000100000100000000000000000000000000000100000,
000000100000100000100100100000100000000000100000,
000000100000200000000000000000000000000000000000,
200000000000200000100000200000000000200000100000,
200000000000200000100000200000100000200000000000,
200000000000200000000000200000100100100000100000,
000000000000000000000000100000000000200000000000,
100000000000200000000000100000000000200000100000,
000000000000200000000000100000000000200000100000,
000000000000200000000000100000000000200000100000,
000000100000200000000000100000100000200000000000,
100000000000200000000000100000000000200000100000,
000000000000000000000000000000100000000000100000,
100000200000200000100000000000100000000000100000,
000000000000000000000000000000300000000000000000,
#GOGOEND
10111122,
10111121,
10111122,
10111121,
10111122,
10111121,
10111122,
00000110,
10212210,
20220022,
10212210,
20220022,
10212210,
20220022,
10212210,
11010000,
10000111,
00010110,
11000011,
00330112,
100000100000200000000000100000100000200000000000,
100000100000200000000000100000100000200000000000,
100000000000200000100000000000100000000000500000,
000000000000000000000000000000000000800000000000,
100000100000100000100000000000000000000000100000,
#GOGOSTART
000000100000100000100100100000100000000000100000,
000000100000100000000000200000100000200000100000,
000000100000100000100100100000100000000000100000,
000000100000200000000000200000100000200000200000,
100000000000200000100000200000000000200000100000,
200000000000200000100000200000100000200000000000,
200000000000200000000000100000100000200000100000,
000000000000100000100000100100100000000000100000,
000000100000100000100100100000100000000000100000,
000000100000100000000000200000100000200000100000,
000000100000100000100100100000100000000000100000,
000000100000200000000000200000100000200000200000,
100000000000200000100000200000000000200000100000,
200000000000200000100000200000100000200000000000,
200000000000200000000000200000100100100000100000,
000000000000000000000000100000000000400000000000,
100000000000000000900000000000000000000000000000,
#GOGOEND
000000000000000000000000000000000000000000000008,
#END
STYLE:Single
BALLOON:10
SCOREINIT:890
SCOREDIFF:160
#START
300000000000000000000000000000000000000000100000,
#GOGOSTART
000000100000100000100100100000100000000000100000,
000000100000100000000000000000000000000000100000,
000000100000100000100100100000100000000000100000,
000000100000200000000000000000000000000000000000,
200000000000200000100000200000000000200000100000,
200000000000200000100000200000100000200000000000,
200000000000200000000000200000100100100000100000,
000000000000000000000000100000000000200000000000,
100000000000200000000000100000000000200000100000,
000000000000200000000000100000000000200000100000,
000000000000200000000000100000000000200000100000,
000000100000200000000000100000100000200000000000,
100000000000200000000000100000000000200000100000,
000000000000000000000000000000100000000000100000,
100000200000200000100000000000100000000000100000,
000000000000000000000000000000300000000000000000,
#GOGOEND
100000000000200000100000200000200000100000000000,
200000000000200000200000000000000000200000200000,
100000000000200000100000200000200000100000000000,
200000000000200000200000000000000000200000200000,
100000000000200000100000200000200000100000000000,
200000000000200000200000000000000000200000200000,
100000000000200000100000200000200000100000000000,
100000100000000000100000000000000000000000000000,
100000000000200000100000200000200000100000100000,
200000000000200000200000000000000000200000200000,
100000000000200000100000200000200000100000100000,
200000000000200000200000000000000000200000200000,
100000000000200000100000200000200000100000100000,
200000000000200000200000000000000000200000200000,
100000000000200000100000200000200000100000000000,
100000100000000000100000000000000000000000000000,
100000000000200000000000200000100000200000100000,
000000000000200000000000200000000000200000000000,
100000100000000000000000000000000000100000100000,
000000000000300000300000000000100000100000200000,
100000100000200000000000100000100000200000000000,
100000100000200000000000100000100000200000000000,
100000000000200000100000000000100000000000500000,
000000000000000000000000000000000000800000000000,
100000100000100000100000000000000000000000100000,
#GOGOSTART
000000100000100000100100100000100000000000100000,
000000100000100000000000200000100000200000100000,
000000100000100000100100100000100000000000100000,
000000100000200000000000200000100000200000200000,
100000000000200000100000200000000000200000100000,
200000000000200000100000200000100000200000000000,
200000000000200000000000100000100000200000100000,
000000000000100000100000100100100000000000100000,
000000100000100000100100100000100000000000100000,
000000100000100000000000200000100000200000100000,
000000100000100000100100100000100000000000100000,
000000100000200000000000200000100000200000200000,
100000000000200000100000200000000000200000100000,
200000000000200000100000200000100000200000000000,
200000000000200000000000200000100100100000100000,
000000000000000000000000100000000000400000000000,
100000000000000000900000000000000000000000000000,
#GOGOEND
000000000000000000000000000000000000000000000008,
#END
COURSE:Normal
LEVEL:3
STYLE:Double
BALLOON:10
SCOREINIT:920
SCOREDIFF:280
#START P1
000000000000000000000000000000000000000000000000,
300000000000000000000000000000000000000000100000,
#GOGOSTART
000000000000200000000000100000000000200000000000,
100000000000100000000000000000000000000000100000,
000000000000200000000000100000000000200000000000,
100000000000100000000000000000000000000000000000,
200000000000100000000000200000000000000000000000,
200000000000200000000000200000000000000000000000,
100000000000100000000000100000000000100000000000,
100000000000000000000000100000000000200000000000,
100000000000000000500000000000000000000000000000,
000000000000000000000000000000000000000000000000,
800000000000000000000000000000000000000000100000,
000000000000100000000000100000100000100000000000,
100000000000000000000000100000000000000000100000,
000000000000000000000000000000100000000000100000,
100000000000000000100000000000100000000000100000,
000000000000000000000000000000300000000000000000,
#GOGOEND
00101100,
10010010,
00101100,
20020020,
00101100,
10010010,
00101100,
11010000,
00200022,
00200021,
00200022,
00200021,
00200022,
00200021,
00200022,
00000110,
000000000000100000000000100000000000100000000000,
000000000000200000000000200000000000200000000000,
000000000000100000000000100000000000100000100000,
000000000000100000100000000000000000000000000000,
100000000000200000000000100000000000200000000000,
100000000000200000000000100000000000200000000000,
100000000000000000100000000000000000000000500000,
000000000000000000000000000000800000000000000000,
100000100000100000100000000000000000000000100000,
#GOGOSTART
000000000000200000000000100000000000200000000000,
100000000000100000000000000000000000000000100000,
000000000000200000000000100000000000200000000000,
100000000000100000000000000000000000000000000000,
000000000000200000200000000000000000200000000000,
000000000000200000200000000000000000200000000000,
200000000000000000000000500000000000000000000000,
000000800000000000000000000000000000000000100000,
000000000000200000000000100000000000200000000000,
100000000000100000000000000000000000000000100000,
000000000000200000000000100000000000200000000000,
100000000000100000000000000000000000000000000000,
200000000000100000000000200000000000000000000000,
200000000000200000000000200000000000000000000000,
100000000000100000000000100000000000100000000000,
100000000000000000000000100000000000200000000000,
100000000000000000900000000000000000000000000000,
#GOGOEND
000000000000000000000000000000000000800000000000,
#END
#START P2
000000000000000000000000000000000000000000000000,
300000000000000000000000000000000000000000100000,
#GOGOSTART
000000000000200000000000100000000000200000000000,
100000000000100000000000000000000000000000100000,
000000000000200000000000100000000000200000000000,
100000000000100000000000000000000000000000000000,
200000000000100000000000200000000000000000000000,
200000000000200000000000200000000000000000000000,
100000000000100000000000100000000000100000000000,
100000000000000000000000100000000000200000000000,
100000000000000000500000000000000000000000000000,
000000000000000000000000000000000000000000000000,
800000000000000000000000000000000000000000100000,
000000000000100000000000100000100000100000000000,
100000000000000000000000100000000000000000100000,
000000000000000000000000000000100000000000100000,
100000000000000000100000000000100000000000100000,
000000000000000000000000000000300000000000000000,
#GOGOEND
00200022,
00200012,
00200022,
00200012,
00200022,
00200012,
00200022,
00000110,
00101100,
10010010,
00101100,
20020020,
00101100,
10010010,
00101100,
11010000,
000000000000100000000000100000000000100000000000,
000000000000200000000000200000000000200000000000,
000000000000100000000000100000000000100000100000,
000000000000100000100000000000000000000000000000,
100000000000200000000000100000000000200000000000,
100000000000200000000000100000000000200000000000,
100000000000000000100000000000000000000000500000,
000000000000000000000000000000800000000000000000,
100000100000100000100000000000000000000000100000,
#GOGOSTART
000000000000200000000000100000000000200000000000,
100000000000100000000000000000000000000000100000,
000000000000200000000000100000000000200000000000,
100000000000100000000000000000000000000000000000,
000000000000200000200000000000000000200000000000,
000000000000200000200000000000000000200000000000,
200000000000000000000000500000000000000000000000,
000000800000000000000000000000000000000000100000,
000000000000200000000000100000000000200000000000,
100000000000100000000000000000000000000000100000,
000000000000200000000000100000000000200000000000,
100000000000100000000000000000000000000000000000,
200000000000100000000000200000000000000000000000,
200000000000200000000000200000000000000000000000,
100000000000100000000000100000000000100000000000,
100000000000000000000000100000000000200000000000,
100000000000000000900000000000000000000000000000,
#GOGOEND
000000000000000000000000000000000000800000000000,
#END
STYLE:Single
BALLOON:10
SCOREINIT:920
SCOREDIFF:280
#START
000000000000000000000000000000000000000000000000,
300000000000000000000000000000000000000000100000,
#GOGOSTART
000000000000200000000000100000000000200000000000,
100000000000100000000000000000000000000000100000,
000000000000200000000000100000000000200000000000,
100000000000100000000000000000000000000000000000,
200000000000100000000000200000000000000000000000,
200000000000200000000000200000000000000000000000,
100000000000100000000000100000000000100000000000,
100000000000000000000000100000000000200000000000,
100000000000000000500000000000000000000000000000,
000000000000000000000000000000000000000000000000,
800000000000000000000000000000000000000000100000,
000000000000100000000000100000100000100000000000,
100000000000000000000000100000000000000000100000,
000000000000000000000000000000100000000000100000,
100000000000000000100000000000100000000000100000,
000000000000000000000000000000300000000000000000,
#GOGOEND
000000000000100000000000100000100000000000000000,
100000000000000000100000000000000000100000000000,
000000000000100000000000100000100000000000000000,
200000000000000000200000000000000000200000000000,
000000000000100000000000100000100000000000000000,
100000000000000000100000000000000000100000000000,
000000000000100000000000100000100000000000000000,
100000100000000000100000000000000000000000000000,
000000000000100000000000100000100000000000000000,
100000000000000000100000000000000000100000000000,
000000000000100000000000100000100000000000000000,
200000000000000000200000000000000000200000000000,
000000000000100000000000100000100000000000000000,
100000000000000000100000000000000000100000000000,
000000000000100000000000100000100000000000000000,
300000000000000000300000000000000000000000000000,
000000000000100000000000100000000000100000000000,
000000000000200000000000200000000000200000000000,
000000000000100000000000100000000000100000100000,
000000000000100000100000000000000000000000000000,
100000000000200000000000100000000000200000000000,
100000000000200000000000100000000000200000000000,
100000000000000000100000000000000000000000500000,
000000000000000000000000000000800000000000000000,
100000100000100000100000000000000000000000100000,
#GOGOSTART
000000000000200000000000100000000000200000000000,
100000000000100000000000000000000000000000100000,
000000000000200000000000100000000000200000000000,
100000000000100000000000000000000000000000000000,
000000000000200000200000000000000000200000000000,
000000000000200000200000000000000000200000000000,
200000000000000000000000500000000000000000000000,
000000800000000000000000000000000000000000100000,
000000000000200000000000100000000000200000000000,
100000000000100000000000000000000000000000100000,
000000000000200000000000100000000000200000000000,
100000000000100000000000000000000000000000000000,
200000000000100000000000200000000000000000000000,
200000000000200000000000200000000000000000000000,
100000000000100000000000100000000000100000000000,
100000000000000000000000100000000000200000000000,
100000000000000000900000000000000000000000000000,
#GOGOEND
000000000000000000000000000000000000800000000000,
#END
COURSE:Easy
LEVEL:3
STYLE:Double
BALLOON:8
SCOREINIT:890
SCOREDIFF:320
#START P1
000000000000000000000000000000000000000000000000,
300000000000000000000000000000000000000000000000,
#GOGOSTART
100000000000100000000000100000000000000000000000,
100000000000100000000000000000000000000000000000,
100000000000100000000000100000000000000000000000,
200000000000200000000000000000000000000000000000,
100000000000100000000000100000000000000000000000,
200000000000200000000000200000000000000000000000,
100000000000000000000000100000000000000000000000,
100000000000000000000000100000000000100000000000,
500000000000000000000000000000000000000000000000,
000000000000800000000000000000000000000000000000,
100000000000000000000000100000000000000000000000,
100000000000100000000000100000000000000000000000,
100000000000000000000000100000000000000000000000,
100000000000100000000000100000000000000000000000,
100000000000000000500000000000000000000000000000,
000000800000000000000000000000300000000000000000,
#GOGOEND
0110,
10010000,
0110,
10010000,
0110,
10010000,
0110,
20020000,
0202,
0222,
0202,
0222,
0202,
0222,
0202,
500000000000000000000000000000000008000000000000,
000000000000200000000000000000000000200000000000,
000000000000100000000000000000000000100000000000,
000000000000200000000000000000000000200000000000,
000000000000100000000000000000000000000000000000,
100000000000100000000000100000000000000000000000,
200000000000200000000000200000000000000000000000,
100000000000000000000000100000000000000000000000,
500000000000000000000000800000000000000000000000,
300000000000300000000000000000000000000000000000,
#GOGOSTART
100000000000100000000000100000000000000000000000,
100000000000100000000000000000000000000000000000,
100000000000100000000000100000000000000000000000,
200000000000200000000000000000000000000000000000,
000000000000100000000000000000000000200000000000,
000000000000100000000000000000000000200000000000,
000000000000100000000000500000000000000000000000,
000000000000800000000000000000000000000000000000,
100000000000100000000000100000000000000000000000,
100000000000100000000000000000000000000000000000,
100000000000100000000000100000000000000000000000,
200000000000200000000000000000000000000000000000,
100000000000100000000000100000000000000000000000,
200000000000200000000000200000000000000000000000,
300000000000000000000000300000000000000000000000,
300000000000000000000000100000000000100000000000,
900000000000000000000000000000000000000000000000,
#GOGOEND
000000000000000000000000800000000000000000000000,
#END
#START P2
000000000000000000000000000000000000000000000000,
300000000000000000000000000000000000000000000000,
#GOGOSTART
100000000000100000000000100000000000000000000000,
100000000000100000000000000000000000000000000000,
100000000000100000000000100000000000000000000000,
200000000000200000000000000000000000000000000000,
100000000000100000000000100000000000000000000000,
200000000000200000000000200000000000000000000000,
100000000000000000000000100000000000000000000000,
100000000000000000000000100000000000100000000000,
500000000000000000000000000000000000000000000000,
000000000000800000000000000000000000000000000000,
100000000000000000000000100000000000000000000000,
100000000000100000000000100000000000000000000000,
100000000000000000000000100000000000000000000000,
100000000000100000000000100000000000000000000000,
100000000000000000500000000000000000000000000000,
000000800000000000000000000000300000000000000000,
#GOGOEND
0202,
0222,
0202,
0222,
0202,
0222,
0202,
500000000000000000000000000000000008000000000000,
0110,
10010000,
0110,
10010000,
0110,
10010000,
0110,
20020000,
000000000000200000000000000000000000200000000000,
000000000000100000000000000000000000100000000000,
000000000000200000000000000000000000200000000000,
000000000000100000000000000000000000000000000000,
100000000000100000000000100000000000000000000000,
200000000000200000000000200000000000000000000000,
100000000000000000000000100000000000000000000000,
500000000000000000000000800000000000000000000000,
300000000000300000000000000000000000000000000000,
#GOGOSTART
100000000000100000000000100000000000000000000000,
100000000000100000000000000000000000000000000000,
100000000000100000000000100000000000000000000000,
200000000000200000000000000000000000000000000000,
000000000000100000000000000000000000200000000000,
000000000000100000000000000000000000200000000000,
000000000000100000000000500000000000000000000000,
000000000000800000000000000000000000000000000000,
100000000000100000000000100000000000000000000000,
100000000000100000000000000000000000000000000000,
100000000000100000000000100000000000000000000000,
200000000000200000000000000000000000000000000000,
100000000000100000000000100000000000000000000000,
200000000000200000000000200000000000000000000000,
300000000000000000000000300000000000000000000000,
300000000000000000000000100000000000100000000000,
900000000000000000000000000000000000000000000000,
#GOGOEND
000000000000000000000000800000000000000000000000,
#END
STYLE:Single
BALLOON:8
SCOREINIT:900
SCOREDIFF:320
#START
000000000000000000000000000000000000000000000000,
300000000000000000000000000000000000000000000000,
#GOGOSTART
100000000000100000000000100000000000000000000000,
100000000000100000000000000000000000000000000000,
100000000000100000000000100000000000000000000000,
200000000000200000000000000000000000000000000000,
100000000000100000000000100000000000000000000000,
200000000000200000000000200000000000000000000000,
100000000000000000000000100000000000000000000000,
100000000000000000000000100000000000100000000000,
500000000000000000000000000000000000000000000000,
000000000000800000000000000000000000000000000000,
100000000000000000000000100000000000000000000000,
100000000000100000000000100000000000000000000000,
100000000000000000000000100000000000000000000000,
100000000000100000000000100000000000000000000000,
100000000000000000500000000000000000000000000000,
000000800000000000000000000000300000000000000000,
#GOGOEND
000000000000100000000000100000000000000000000000,
100000000000000000100000000000000000000000000000,
000000000000100000000000100000000000000000000000,
100000000000000000100000000000000000000000000000,
000000000000100000000000100000000000000000000000,
100000000000000000100000000000000000000000000000,
000000000000100000000000100000000000000000000000,
200000000000000000200000000000000000000000000000,
000000000000100000000000100000000000000000000000,
100000000000000000100000000000000000000000000000,
000000000000100000000000100000000000000000000000,
100000000000000000100000000000000000000000000000,
000000000000100000000000100000000000000000000000,
100000000000000000100000000000000000000000000000,
000000000000100000000000100000000000000000000000,
200000000000000000200000000000000000000000000000,
000000000000200000000000000000000000200000000000,
000000000000100000000000000000000000100000000000,
000000000000200000000000000000000000200000000000,
000000000000100000000000000000000000000000000000,
100000000000100000000000100000000000000000000000,
200000000000200000000000200000000000000000000000,
100000000000000000000000100000000000000000000000,
500000000000000000000000800000000000000000000000,
300000000000300000000000000000000000000000000000,
#GOGOSTART
100000000000100000000000100000000000000000000000,
100000000000100000000000000000000000000000000000,
100000000000100000000000100000000000000000000000,
200000000000200000000000000000000000000000000000,
000000000000100000000000000000000000200000000000,
000000000000100000000000000000000000200000000000,
000000000000100000000000500000000000000000000000,
000000000000800000000000000000000000000000000000,
100000000000100000000000100000000000000000000000,
100000000000100000000000000000000000000000000000,
100000000000100000000000100000000000000000000000,
200000000000200000000000000000000000000000000000,
100000000000100000000000100000000000000000000000,
200000000000200000000000200000000000000000000000,
300000000000000000000000300000000000000000000000,
300000000000000000000000100000000000100000000000,
900000000000000000000000000000000000000000000000,
#GOGOEND
000000000000000000000000800000000000000000000000,
#END