forked from ESE/ESE
352 lines
15 KiB
Plaintext
352 lines
15 KiB
Plaintext
//TJADB Project
|
|
TITLE:Kimi to Yakusoku Shita Yasashii Ano Basho Made
|
|
TITLEJA:君と約束した優しいあの場所まで
|
|
SUBTITLE:--U-ka saegusa IN db/Detective Conan
|
|
SUBTITLEJA:名探偵コナン
|
|
BPM:170
|
|
WAVE:Kimi to Yakusoku Shita Yasashii Ano Basho Made.ogg
|
|
OFFSET:-2.605
|
|
DEMOSTART:51.281
|
|
|
|
COURSE:Oni
|
|
LEVEL:8
|
|
BALLOON:18,10,20
|
|
SCOREINIT:770
|
|
SCOREDIFF:180
|
|
|
|
|
|
#START
|
|
|
|
|
|
000000000000000000000000000000000000000000000000,
|
|
100000100000100000000000200000000000000000100000,
|
|
000000100000100000200000200000000000000000000000,
|
|
100000100000100000000000200000000000000000100000,
|
|
000000100000100000000000200000000000000000000000,
|
|
100000100000100000000000200000000000000000100000,
|
|
000000100000100000200000200000000000200000000000,
|
|
000000000000000000000000000000000000000000000000,
|
|
000000000000000000000000000000000000000000000000,
|
|
000000000000100000000000100000000000000000100000,
|
|
000000100100100000000000200000000000000000000000,
|
|
000000000000100000000000100000000000000000100000,
|
|
000000100100100000000000200000000000000000000000,
|
|
000000000000100000100000100000000000000000100000,
|
|
000000100100100000100000200000200000000000000000,
|
|
000000000000100000100000100000000000000000100000,
|
|
000000100100100000100000200000000000000000000000,
|
|
000000000000100000000000100000000000000000100000,
|
|
000000100100100000000000200000000000000000000000,
|
|
100000000000100000200000000000000000000000000000,
|
|
000000200200200000200000100000000000000000000000,
|
|
000000000000100000000000100000000000000000100000,
|
|
000000100100100000000000200000000000000000000000,
|
|
100000000000100000100000000000000000200000200000,
|
|
000000200200200000200000100000000000000000000000,
|
|
100000000000000000100000000000000000100000100000,
|
|
000000200000200000000000100000100000100000000000,
|
|
100000000000100000100000000000100000000000500000,
|
|
000000000000000008000000000000100000000000100000,
|
|
100000000000100000000000200000100000000000100000,
|
|
000000100000100000000000200000000000100000100000,
|
|
000000100000100000000000200000100000000000100000,
|
|
100000000000100000700000000000000000000000000000,
|
|
000000000000000000000000000000000000000000000000,
|
|
800000200000200000000000100000000000100000000000,
|
|
200000000000100000200000000000100000200000200000,
|
|
000000100100100000000000100000100100200000100000,
|
|
100000000000000000100000100100200000100000100000,
|
|
000000000000200000200000000000200000200000100100,
|
|
100000200000100000200200200000100000100000200000,
|
|
100000200000100000200200200000100000100000200000,
|
|
200000100000200000100100100000200000200000200000,
|
|
000000200000200000000000100000100000200000100000,
|
|
200000000000100000200000000000100000200000200000,
|
|
000000100100100000000000100000100100200000100000,
|
|
100000000000000000100000100100200000100000100000,
|
|
000000000000200000200000000000200000200000100100,
|
|
100000200000100000200200200000100000100000200000,
|
|
100000200000100000200200200000100000200000100100,
|
|
100000000000200000200000000000200000200000100000,
|
|
100000200000100100100000100000200000100000100000,
|
|
700000000000000000000000000000000000000000000000,
|
|
800000200000200000000000100000100000200000100000,
|
|
200000000000100000200000000000300000000000300000,
|
|
000000100100100000000000100000100100200000100000,
|
|
100000000000000000100000100000300000000000300000,
|
|
000000000000200000200000000000200000200000100100,
|
|
100000000000000000100100200000000000100000100000,
|
|
100000000000100000100100200000000000100000200000,
|
|
200000100100100000200000000000000000100000100000,
|
|
000000200000200000000000100000100000200000100000,
|
|
200000000000100000200000000000100000200000200000,
|
|
000000100100100000000000100000100100200000100000,
|
|
100000000000100000100000100100200000100000100000,
|
|
000000000000200000200000000000200000200000100100,
|
|
100000200000100000200200200000100000100000200000,
|
|
100000200000100000200200200000100000200000100000,
|
|
100000000000200000200000000000200000200000100000,
|
|
100000200000100100100000100000200000100000100000,
|
|
700000000000000000000000000000000000000000000000,
|
|
000000000000000000000000000000000000000000000008,
|
|
|
|
|
|
#END
|
|
|
|
|
|
COURSE:Hard
|
|
LEVEL:4
|
|
BALLOON:20,20
|
|
SCOREINIT:950
|
|
SCOREDIFF:250
|
|
|
|
|
|
#START
|
|
|
|
|
|
000000000000000000000000100000000000000000000000,
|
|
000000000000000000000000100000000000000000000000,
|
|
000000000000000000000000100000000000200000000000,
|
|
000000000000000000000000100000000000000000000000,
|
|
000000000000000000000000100000000000000000000000,
|
|
000000000000000000000000100000000000000000000000,
|
|
000000000000000000000000100000100000200000000000,
|
|
000000000000000000000000100000000000000000000000,
|
|
000000000000000000000000100000000000000000000000,
|
|
000000000000100000000000100000000000000000100000,
|
|
000000100000100000000000200000000000000000000000,
|
|
000000000000100000000000100000000000000000100000,
|
|
000000100000100000000000200000000000000000000000,
|
|
000000000000100000000000100000000000000000100000,
|
|
000000100000100000000000200000000000000000000000,
|
|
000000000000100000000000100000000000000000100000,
|
|
000000100000100000000000200000000000000000000000,
|
|
000000000000100000000000100000000000000000100000,
|
|
000000100000100000000000200000000000000000000000,
|
|
100000000000100000100000000000000000200000200000,
|
|
000000200000200000000000100000000000000000000000,
|
|
000000000000100000000000100000000000000000100000,
|
|
000000100000100000000000200000000000000000000000,
|
|
100000000000100000100000000000000000200000200000,
|
|
000000200000200000000000100000000000000000000000,
|
|
100000000000000000100000000000000000100000100000,
|
|
000000000000000000100000000000100000100000000000,
|
|
100000000000100000100000000000100000000000500000,
|
|
000000000000000800000000000000100000000000100000,
|
|
100000000000100000000000100000100000000000100000,
|
|
000000100000100000000000100000000000100000100000,
|
|
000000100000100000000000100000100000000000100000,
|
|
100000000000100000700000000000000000000000000000,
|
|
000000000000000000000000000000000000000000000800,
|
|
000000000000000000000000100000000000100000000000,
|
|
100000000000200000000000100000100000200000000000,
|
|
100000000000200000000000100000100000200000000000,
|
|
100000000000000000100000000000000000100000100000,
|
|
000000000000000000000000000000200000200000000000,
|
|
100000000000200000000000100000100000200000000000,
|
|
100000000000200000000000100000100000200000000000,
|
|
100000100000000000500000000000000000000000000000,
|
|
000800000000000000000000100000000000100000000000,
|
|
100000000000200000000000100000100000200000000000,
|
|
100000000000200000000000100000100000200000000000,
|
|
100000000000000000100000000000000000100000100000,
|
|
000000000000000000000000000000100000100000000000,
|
|
100000000000200000000000100000100000200000000000,
|
|
100000000000200000000000100000100000200000000000,
|
|
100000000000200000000000100000100000200000000000,
|
|
100000000000200000000000100000100000200000000000,
|
|
500000000000000000000000000000000000000000000800,
|
|
000000000000000000000000100000100000100000100000,
|
|
100000000000000000000000000000400000000000400000,
|
|
000000000000000000000000000000000000000000000000,
|
|
400000000000000000000000000000400000000000400000,
|
|
000000000000000000000000000000000000300000000000,
|
|
100000000000000000000000200000000000000000100000,
|
|
100000000000100000000000200000000000100000000000,
|
|
100000100000000000500000000000000000000000000000,
|
|
000800000000000000000000100000000000100000000000,
|
|
100000000000200000000000100000100000200000000000,
|
|
100000000000200000000000100000100000200000000000,
|
|
100000000000100000100000200000200000000000200000,
|
|
000000000000200000000000100000100000200000000000,
|
|
100000000000200000000000100000100000200000000000,
|
|
100000000000200000000000100000100000200000000000,
|
|
100000000000200000000000100000100000200000000000,
|
|
100000100000200000000000100000100000200000000000,
|
|
700000000000000000000000000000000000000000000000,
|
|
000000000000000000000000000000000000000000000008,
|
|
|
|
|
|
#END
|
|
|
|
|
|
COURSE:Normal
|
|
LEVEL:4
|
|
SCOREINIT:1170
|
|
SCOREDIFF:350
|
|
|
|
|
|
#START
|
|
|
|
|
|
000000000000000000000000100000000000000000000000,
|
|
000000000000000000000000100000000000000000000000,
|
|
000000000000000000000000100000000000100000000000,
|
|
000000000000000000000000100000000000000000000000,
|
|
000000000000000000000000100000000000000000000000,
|
|
000000000000000000000000100000000000000000000000,
|
|
000000000000000000000000100000000000100000000000,
|
|
000000000000000000000000100000000000000000000000,
|
|
000000000000000000000000100000000000000000000000,
|
|
000000000000100000000000100000000000000000000000,
|
|
100000000000000000000000200000000000000000000000,
|
|
000000000000100000000000100000000000000000000000,
|
|
100000000000000000000000200000000000000000000000,
|
|
000000000000100000000000100000000000000000000000,
|
|
100000000000000000000000200000000000000000000000,
|
|
100000000000000000000000200000000000000000000000,
|
|
100000000000100000000000200000000000000000000000,
|
|
000000000000100000000000100000000000000000000000,
|
|
200000000000000000000000200000000000000000000000,
|
|
000000000000100000000000100000000000000000000000,
|
|
200000000000000000000000200000000000000000000000,
|
|
000000000000100000000000100000000000000000000000,
|
|
200000000000000000000000200000000000000000000000,
|
|
200000000000000000000000200000000000100000100000,
|
|
000000000000000000000000000000000000000000000000,
|
|
100000000000000000100000000000000000100000100000,
|
|
100000000000000000000000200000000000000000000000,
|
|
100000000000000000100000000000000000100000100000,
|
|
100000000000000000000000000000000000000000000000,
|
|
100000000000000000100000000000000000100000100000,
|
|
100000000000000000000000200000000000000000000000,
|
|
100000000000000000100000000000000000100000100000,
|
|
100000000000000000000000500000000000000000000000,
|
|
000000000000000000000000000000800000000000000000,
|
|
000000000000000000000000100000000000000000000000,
|
|
100000000000100000000000100000100000100000000000,
|
|
100000000000000000000000100000000000000000000000,
|
|
100000000000100000000000100000100000100000000000,
|
|
100000000000000000000000200000000000000000000000,
|
|
100000000000100000000000100000000000000000000000,
|
|
100000100000100000000000100000000000000000000000,
|
|
100000000000000000500000000000000000000000000000,
|
|
800000000000000000000000100000000000000000000000,
|
|
100000000000100000000000200000200000200000000000,
|
|
100000000000000000000000200000000000000000000000,
|
|
100000000000100000000000200000200000200000000000,
|
|
100000000000000000000000200000000000000000000000,
|
|
100000000000100000000000100000000000000000000000,
|
|
100000100000100000000000100000000000000000000000,
|
|
100000000000000000000000000000000000000000000000,
|
|
200000000000200000000000100000000000100000000000,
|
|
500000000000000000000000000000000000000000000000,
|
|
800000000000000000000000100000000000000000000000,
|
|
200000000000000000000000000000200000000000200000,
|
|
000000000000000000000000000000000000000000000000,
|
|
200000000000000000000000000000200000000000200000,
|
|
000000000000000000000000000000000000300000000000,
|
|
100000000000000000000000100000000000000000000000,
|
|
100000100000100000000000100000000000000000000000,
|
|
100000000000000000500000000000000000000000000000,
|
|
800000000000000000000000100000000000000000000000,
|
|
100000000000100000000000200000200000200000000000,
|
|
100000000000000000000000200000000000000000000000,
|
|
100000000000100000000000200000200000200000000000,
|
|
100000000000000000000000200000000000000000000000,
|
|
100000000000100000000000100000000000000000000000,
|
|
100000100000100000000000100000000000000000000000,
|
|
100000000000000000000000000000000000000000000000,
|
|
200000000000200000000000100000000000100000000000,
|
|
500000000000000000000000000000000000000000000000,
|
|
000000000000000000000000000000000008000000000000,
|
|
|
|
|
|
#END
|
|
|
|
|
|
COURSE:Easy
|
|
LEVEL:5
|
|
SCOREINIT:1070
|
|
SCOREDIFF:340
|
|
|
|
|
|
#START
|
|
|
|
|
|
000000000000000000000000100000000000000000000000,
|
|
000000000000000000000000100000000000000000000000,
|
|
000000000000000000000000100000000000000000000000,
|
|
000000000000000000000000100000000000000000000000,
|
|
000000000000000000000000100000000000000000000000,
|
|
000000000000000000000000100000000000000000000000,
|
|
000000000000000000000000100000000000000000000000,
|
|
000000000000000000000000100000000000000000000000,
|
|
000000000000000000000000100000000000000000000000,
|
|
000000000000100000000000100000000000000000000000,
|
|
100000000000000000000000000000000000000000000000,
|
|
000000000000100000000000100000000000000000000000,
|
|
100000000000000000000000000000000000000000000000,
|
|
000000000000100000000000100000000000000000000000,
|
|
100000000000000000000000100000000000000000000000,
|
|
100000000000000000000000000000000000000000000000,
|
|
000000000000000000000000000000000000000000000000,
|
|
000000000000100000000000100000000000000000000000,
|
|
200000000000000000000000000000000000000000000000,
|
|
000000000000100000000000100000000000000000000000,
|
|
200000000000000000000000000000000000000000000000,
|
|
000000000000100000000000100000000000000000000000,
|
|
200000000000000000000000200000000000000000000000,
|
|
200000000000000000000000200000000000000000000000,
|
|
200000000000000000000000000000000000000000000000,
|
|
100000000000000000100000000000000000100000000000,
|
|
100000000000000000000000000000000000000000000000,
|
|
100000000000000000100000000000000000100000000000,
|
|
100000000000000000000000000000000000000000000000,
|
|
100000000000000000100000000000000000100000000000,
|
|
100000000000000000000000000000000000000000000000,
|
|
100000000000000000100000000000000000100000000000,
|
|
100000000000000000000000500000000000000000000000,
|
|
000000000000000000000000000000800000000000000000,
|
|
000000000000000000000000100000000000000000000000,
|
|
100000000000100000000000100000000000100000000000,
|
|
100000000000100000000000100000000000100000000000,
|
|
100000000000100000000000100000000000100000000000,
|
|
100000000000000000000000200000000000000000000000,
|
|
100000000000200000000000100000000000000000000000,
|
|
100000000000100000000000100000000000100000000000,
|
|
100000000000000000500000000000000000000000000000,
|
|
800000000000000000000000100000000000000000000000,
|
|
100000000000200000000000100000000000200000000000,
|
|
100000000000200000000000100000000000200000000000,
|
|
100000000000200000000000100000000000200000000000,
|
|
100000000000000000000000200000000000000000000000,
|
|
100000000000200000000000100000000000000000000000,
|
|
100000000000100000000000100000000000100000000000,
|
|
100000000000000000000000000000000000000000000000,
|
|
200000000000200000000000100000000000100000000000,
|
|
500000000000000000000000000000000000000000000000,
|
|
800000000000000000000000100000000000000000000000,
|
|
000000000000200000000000000000000000200000000000,
|
|
000000000000200000000000000000000000200000000000,
|
|
000000000000200000000000000000000000200000000000,
|
|
000000000000000000000000000000000000100000000000,
|
|
100000000000000000000000100000000000000000000000,
|
|
100000000000100000000000100000000000000000000000,
|
|
100000000000000000500000000000000000000000000000,
|
|
800000000000000000000000100000000000000000000000,
|
|
100000000000200000000000100000000000200000000000,
|
|
100000000000200000000000100000000000200000000000,
|
|
100000000000200000000000100000000000200000000000,
|
|
100000000000000000000000200000000000000000000000,
|
|
100000000000200000000000100000000000000000000000,
|
|
100000000000100000000000100000000000100000000000,
|
|
100000000000000000000000000000000000000000000000,
|
|
200000000000200000000000100000000000100000000000,
|
|
500000000000000000000000000000000000000000000000,
|
|
000000000000000000000000000000000008000000000000,
|
|
|
|
|
|
#END
|
|
|