forked from ESE/ESE
313 lines
12 KiB
Plaintext
313 lines
12 KiB
Plaintext
//TJADB Project
|
|
TITLE:Kinnikuman Go Fight!
|
|
TITLEJA:キン肉マン Go Fight!
|
|
SUBTITLE:--Akira Kushida/Kinnikuman
|
|
BPM:149
|
|
WAVE:Kinnikuman Go Fight!.ogg
|
|
OFFSET:-1.921
|
|
DEMOSTART:7.545
|
|
|
|
COURSE:Oni
|
|
LEVEL:6
|
|
BALLOON:22,22
|
|
SCOREINIT:890
|
|
SCOREDIFF:210
|
|
|
|
|
|
#START
|
|
|
|
|
|
000000100000100000000000100000100000000000200000,
|
|
000000100000100000000000100000100000000000200000,
|
|
300000000000400000000000300000000000400000000000,
|
|
300000300000000000000000100000000000100000000000,
|
|
100000000000200000100000000000100000200000200200,
|
|
100000000000200000100000000000100000200000200200,
|
|
100000000000200000100000000000200000100100200200,
|
|
100000000000200000100000100000000000200000000000,
|
|
100000000000200000100000000000100000200000200200,
|
|
100000000000200000100000000000100000200000200200,
|
|
100000000000200000100000000000200000100100200200,
|
|
100000000000000000000000100000000000100000000000,
|
|
100000000000200000100000000000100000200000200200,
|
|
100000200000200000100000000000100000200000200200,
|
|
100000000000200000100000000000200000100100200200,
|
|
100000000000200000100000100000000000200000000000,
|
|
100000000000200000100000000000100000200000200200,
|
|
100000000000200000100000000000100000200000000000,
|
|
500000000000000000000000000000000000000000000008,
|
|
000000000000000000000000000000000000000000000000,
|
|
100000100100200000200000200000200200100000000000,
|
|
100000100100200000000000200000200200100000000000,
|
|
100000100000200000200000100000100000200000200000,
|
|
500000000000000000000000000000000008000000000000,
|
|
100000100100200000000000200000200200100000000000,
|
|
100000100100200000100000200000200200100000000000,
|
|
|
|
#GOGOSTART
|
|
100000100100200000100000100000100100200000100000,
|
|
100000100100200000100000000000100100200000100000,
|
|
100000100100200000100000100000100100200000100000,
|
|
500000000000000000000008000000000000200000200000,
|
|
100000100100200000100000200000100100200000200000,
|
|
100000100100200000100000000000100000200000200000,
|
|
500000000000000000000000000000000000000000000008,
|
|
000000000000300000000000300000000000300000000000,
|
|
700000000000000000000000000000000000000000000000,
|
|
800000000000000000000000000000000000100000000000,
|
|
500000000000000000000000000000000000000000000000,
|
|
000000000008000000000000000000000000000000000000,
|
|
|
|
#GOGOEND
|
|
100000100100200000200000200000200200100000000000,
|
|
100000100100200000000000200000200200100000000000,
|
|
100000100000200000200000100000100000200000200000,
|
|
500000000000000000000000000000000008000000000000,
|
|
100000100100200000000000200000200200100000000000,
|
|
100000100100200000100000200000200200100000000000,
|
|
|
|
#GOGOSTART
|
|
100000100100200000100000100000100100200000100000,
|
|
100000100100200000100000000000100100200000100000,
|
|
100000100100200000100000100000100100200000100000,
|
|
500000000000000000000008000000000000200000200000,
|
|
100000100100200000100000200000100100200000200000,
|
|
100000100100200000100000000000000000200000200000,
|
|
500000000000000000000000000000000000000000000008,
|
|
000000000000300000000000300000000000300000000000,
|
|
700000000000000000000000000000000000000000000000,
|
|
800000000000000000000000000000000000300000000000,
|
|
600000000000000000000000000000000000000000000008,
|
|
|
|
#GOGOEND
|
|
|
|
|
|
#END
|
|
|
|
|
|
COURSE:Hard
|
|
LEVEL:5
|
|
BALLOON:17,17
|
|
SCOREINIT:890
|
|
SCOREDIFF:200
|
|
|
|
|
|
#START
|
|
|
|
|
|
000000100000100000000000100000100000000000200000,
|
|
000000100000100000000000100000100000000000200000,
|
|
300000000000000000000000300000000000000000000000,
|
|
300000300000000000000000100000000000100000000000,
|
|
100000000000200000100000000000100000200000100100,
|
|
100000000000100000100000000000100000200000000000,
|
|
100000000000200000100000000000100000200000100100,
|
|
100000000000100000100000100000000000200000000000,
|
|
100000000000200000100000000000100000200000100100,
|
|
100000000000200000100000000000100000200000000000,
|
|
100000000000200000100000000000100000200000100100,
|
|
100000000000000000000000100000000000100000000000,
|
|
100000000000200000100000000000100000200000100100,
|
|
100000000000200000100000000000100000200000000000,
|
|
100000000000200000100000000000100000200000100100,
|
|
100000000000100000100000100000000000200000000000,
|
|
100000000000200000100000000000100000200000100100,
|
|
100000000000200000100000000000100000200000000000,
|
|
500000000000000000000000000000000000000000000800,
|
|
000000000000000000000000000000000000000000000000,
|
|
100000100000100000100000200000200000200000000000,
|
|
100000100000100000000000200000200000200000000000,
|
|
100000000000200000000000100000000000100000100000,
|
|
500000000000000000000000000000000800000000000000,
|
|
100000100000100000000000200000200000200000000000,
|
|
100000100000100000100000200000200000200000000000,
|
|
#GOGOSTART
|
|
100000000000200000100000000000100100100000200000,
|
|
100000000000200000100000000000100100100000200000,
|
|
100000000000200000100000100000100100100000200000,
|
|
100000000000200000100000000000000000100000000000,
|
|
100000000000200000100000100000100100100000200000,
|
|
100000000000200000100000000000000000200000200000,
|
|
500000000000000000000000000000000000000000000800,
|
|
000000000000300000000000300000000000300000000000,
|
|
700000000000000000000000000000000000000000000800,
|
|
000000000000000000000000000000000000100000000000,
|
|
500000000000000000000000000000000000000000000000,
|
|
000000000800000000000000000000000000000000000000,
|
|
#GOGOEND
|
|
100000100000100000100000200000200000200000000000,
|
|
100000100000100000000000200000200000200000000000,
|
|
100000000000200000000000100000000000100000100000,
|
|
500000000000000000000000000000000800000000000000,
|
|
100000100000100000000000200000200000200000000000,
|
|
100000100000100000100000200000200000200000000000,
|
|
#GOGOSTART
|
|
100000000000200000100000000000100100100000200000,
|
|
100000000000200000100000000000100100100000200000,
|
|
100000000000200000100000100000100100100000200000,
|
|
100000000000200000100000000000000000100000000000,
|
|
100000000000200000100000100000100100100000200000,
|
|
100000000000200000100000000000000000200000200000,
|
|
500000000000000000000000000000000000000000000800,
|
|
000000000000300000000000300000000000300000000000,
|
|
700000000000000000000000000000000000000000000800,
|
|
000000000000000000000000000000000000300000000000,
|
|
600000000000000000000000000000000000000000000000,
|
|
000000000000000000000008000000000000000000000000,
|
|
#GOGOEND
|
|
|
|
|
|
#END
|
|
|
|
|
|
COURSE:Normal
|
|
LEVEL:4
|
|
BALLOON:12,12
|
|
SCOREINIT:1200
|
|
SCOREDIFF:330
|
|
|
|
|
|
#START
|
|
|
|
|
|
000000000000100000000000100000100000000000000000,
|
|
000000000000100000000000100000100000000000000000,
|
|
300000000000000000000000300000000000000000000000,
|
|
300000000000000000000000100000000000100000000000,
|
|
100000000000100000100000000000000000100000000000,
|
|
100000000000000000000000000000000000000000000000,
|
|
100000000000100000100000000000000000100000000000,
|
|
100000000000000000000000100000000000100000000000,
|
|
100000000000100000100000000000000000100000000000,
|
|
100000000000000000000000100000000000100000000000,
|
|
100000000000100000100000000000000000000000000000,
|
|
000000000000000000000000100000000000100000000000,
|
|
100000000000200000100000000000000000100000000000,
|
|
100000000000000000000000000000000000000000000000,
|
|
100000000000200000100000000000000000100000000000,
|
|
100000000000000000000000100000000000100000000000,
|
|
100000000000200000100000000000000000100000000000,
|
|
100000000000200000100000000000000000100000000000,
|
|
500000000000000000000000000000000000000000800000,
|
|
000000000000000000000000000000000000000000000000,
|
|
100000100000100000000000000000000000000000000000,
|
|
100000100000100000000000000000000000000000000000,
|
|
100000000000000000000000100000000000000000500000,
|
|
000000000000000000000000000000800000000000000000,
|
|
100000100000100000000000000000000000000000000000,
|
|
100000100000100000000000000000000000000000000000,
|
|
#GOGOSTART
|
|
100000000000200000000000000000100000100000000000,
|
|
100000000000200000000000000000100000100000000000,
|
|
100000000000200000000000100000000000100000100000,
|
|
100000000000000000000000000000000000100000000000,
|
|
100000000000000000000000100000000000100000000000,
|
|
100000000000000000000000000000000000100000000000,
|
|
500000000000000000000000000000000000000000800000,
|
|
000000000000300000000000300000000000300000000000,
|
|
700000000000000000000000000000000000000000800000,
|
|
000000000000000000000000000000000000100000000000,
|
|
500000000000000000000000000000000000000000000000,
|
|
000000800000000000000000000000000000000000000000,
|
|
#GOGOEND
|
|
000000000000000000000000200000200000200000000000,
|
|
000000000000000000000000200000200000200000000000,
|
|
100000000000000000000000100000000000000000500000,
|
|
000000000000000000000000000000800000000000000000,
|
|
000000000000000000000000200000200000200000000000,
|
|
000000000000000000000000200000200000200000000000,
|
|
#GOGOSTART
|
|
100000000000200000000000000000100000100000000000,
|
|
100000000000200000000000000000100000100000000000,
|
|
100000000000200000000000100000000000100000100000,
|
|
100000000000000000000000000000000000100000000000,
|
|
100000000000000000000000100000000000100000000000,
|
|
100000000000000000000000000000000000100000000000,
|
|
500000000000000000000000000000000000000000800000,
|
|
000000000000300000000000300000000000300000000000,
|
|
700000000000000000000000000000000000000000800000,
|
|
000000000000000000000000000000000000100000000000,
|
|
500000000000000000000000000000000000000000000000,
|
|
000000000008000000000000000000000000000000000000,
|
|
#GOGOEND
|
|
|
|
|
|
#END
|
|
|
|
|
|
COURSE:Easy
|
|
LEVEL:3
|
|
BALLOON:8,9,8,9,10
|
|
SCOREINIT:1260
|
|
SCOREDIFF:570
|
|
|
|
|
|
#START
|
|
|
|
|
|
000000000000000000000000000000000000000000000000,
|
|
000000000000000000000000000000000000000000000000,
|
|
300000000000000000000000300000000000000000000000,
|
|
300000000000000000000000100000000000100000000000,
|
|
100000000000000000000000000000000000000000000000,
|
|
000000000000000000000000100000000000000000000000,
|
|
100000000000000000000000000000000000000000000000,
|
|
000000000000000000000000100000000000100000000000,
|
|
100000000000000000000000000000000000000000000000,
|
|
000000000000000000000000100000000000000000000000,
|
|
100000000000000000000000000000000000000000000000,
|
|
000000000000000000000000100000000000100000000000,
|
|
100000000000000000000000000000000000000000000000,
|
|
000000000000000000000000100000000000000000000000,
|
|
100000000000000000000000000000000000000000000000,
|
|
000000000000000000000000100000000000100000000000,
|
|
100000000000000000000000000000000000000000000000,
|
|
100000000000000000000000000000000000000000000000,
|
|
500000000000000000000000000000000000000000800000,
|
|
000000000000000000000000000000000000000000000000,
|
|
100000000000100000000000000000000000000000000000,
|
|
100000000000100000000000000000000000000000000000,
|
|
700000000000000000000000000000000000000000000000,
|
|
000000000000000000000000000000800000000000000000,
|
|
100000000000100000000000000000000000000000000000,
|
|
100000000000100000000000000000000000000000000000,
|
|
#GOGOSTART
|
|
100000000000000000000000000000000000100000000000,
|
|
100000000000000000000000000000000000100000000000,
|
|
100000000000000000000000100000000000000000000000,
|
|
100000000000000000000000000000000000000000000000,
|
|
100000000000000000000000100000000000100000000000,
|
|
100000000000000000000000000000000000100000000000,
|
|
500000000000000000000000800000000000000000000000,
|
|
000000000000300000000000300000000000300000000000,
|
|
700000000000000000000000000000000000000000000000,
|
|
000000000000000000800000000000000000100000000000,
|
|
500000000000000000000000000000000000000000000000,
|
|
000000800000000000000000000000000000000000000000,
|
|
#GOGOEND
|
|
000000000000000000000000200000000000200000000000,
|
|
000000000000000000000000200000000000200000000000,
|
|
700000000000000000000000000000000000000000000000,
|
|
000000000000000000000000000000800000000000000000,
|
|
000000000000000000000000200000000000200000000000,
|
|
000000000000000000000000200000000000200000000000,
|
|
#GOGOSTART
|
|
100000000000000000000000000000000000100000000000,
|
|
100000000000000000000000000000000000100000000000,
|
|
100000000000000000000000100000000000000000000000,
|
|
100000000000000000000000000000000000000000000000,
|
|
100000000000000000000000100000000000100000000000,
|
|
100000000000000000000000000000000000100000000000,
|
|
500000000000000000000000800000000000000000000000,
|
|
000000000000300000000000300000000000300000000000,
|
|
700000000000000000000000000000000000000000000000,
|
|
000000000000000000800000000000000000300000000000,
|
|
9,
|
|
08,
|
|
|
|
#GOGOEND
|
|
|
|
|
|
#END
|
|
|