Files

346 lines
14 KiB
Plaintext

//TJADB Project
TITLE:Kirakira Kirara☄
TITLEJA:キラキラキララ☄
SUBTITLE:--Seiichiro Sugiura feat. Yuka Uchiyae/Onegai My Melody Kirara☆
BPM:180
WAVE:Kirakira Kirara☆彡.ogg
OFFSET:-1.259
DEMOSTART:50.592
BGMOVIE:Kirakira Kirara☆彡.mp4
COURSE:Oni
LEVEL:8
BALLOON:10,10
SCOREINIT:600
SCOREDIFF:150
#START
700000000000000000000000000000000000800000000000,
100000100000200000000100100000100000200000100000,
000000100000200000100000000000100000200000100100,
100000100000200000000100100000100000200000100000,
000000100100200000100100200000100100200000100000,
100000100000200000100100100000100000200000100000,
000000100000200000100000000000200200100000100000,
100000100100200000100000000000100000200000100000,
000000001000000010000000100000001000000010000000,
200000000000000000000000100000100100200000000000,
100000000000200000000100100000100000200000100000,
000000100000200000100000100000100100200000100200,
100000000000200000000100100000100000200000100000,
100000100000200000000100100000100000200000200200,
100000000000200000000100100000100000200000100000,
000000100000200000100000100000100100200000100000,
100000000000200000000100100000100000200000100000,
100000100000200000200000100000100200200000100000,
100000000000200000000100100000100000200000100000,
000000100000200000100000100000100100200000100200,
100000000000200000000100100000100000200000100000,
100000100000200000000100100000100000200000200200,
100000000000200000000100100000100000200000100000,
000000100000200000100000100000100100200000100000,
300000000000300000000000100000200000000000100000,
000000200000200000100000100100100000200000000000,
100000000000200000100100200000000000100000100000,
000000100000200000000000200000000000100000200200,
100000000000200000100000200000000000100000200000,
000000100000200000100000200100100000200000000000,
300000300000300000000000000000400000000000300000,
000000100100200000100000200000100100200000100000,
200000200200200000100100100000200200200000100000,
200000200000100000100100200000200000100000100100,
200000200000100000100100200000200000100000100100,
200000200000100000100100200000200000100000100000,
000000300000000300000000300000000000000000000000,
#GOGOSTART
100000100000200000000100100000100000200000100000,
000000100000200000200000000000100000200000100100,
100000100000200000100100100000100000200000100000,
000000100100200000100100200000100100200000100000,
100000100000200000000100100000100000200000100000,
000000100000200000200000000000100000200000100000,
000000100000200000100100100000100000200000100100,
200000100100200000100100200000100100200000200200,
100000100000200000000100100000100000200000100000,
000000100000200000200000000000100000200000100100,
100000100000200000000100100000100000200000100000,
000000100000100000100000000000200200100000000000,
#GOGOEND
100000000000200000000000100000100100200000100000,
100000000000200000000000100000100100200000100000,
100000000000200000100000200000100100200000100000,
100000000000200000100000200000100100200000100000,
100000000000200000100000100000000000200000000000,
300000000000300000000000300000000000300000000000,
600000000000000000000000000000000008000000000000,
300000000000000000000000100000200200100000200200,
100000100000200000100100100000200000200000100000,
000000100000200000100000000000200200200000100000,
100000100000200000100100100000100000200000100000,
000000100100200000100100200000100100200000100100,
200000200000100000200200100000100000200000100000,
000000200200100000100000000000200200200000100000,
200000100100200000100100200000100100200000100000,
000000100100100000200200200000100100100000200000,
000000000000700000000000000000000000000000000000,
800000003000000030000000300000000000000000000000,
#END
COURSE:Hard
LEVEL:6
BALLOON:10,6,10
SCOREINIT:850
SCOREDIFF:200
#START
700000000000000000000000000000000800000000000000,
100000000000200000000000100000000000200000100000,
000000100000100000100000000000100000200000000000,
100000000000200000000000100000000000200000100000,
000000100000100000100000100000000000200000000000,
100000000000200000000000100000000000200000100000,
000000100000100000100000000000100000200000000000,
100000000000200000000000100000000000200000300000,
000000000000000000000000000000000000000000000000,
000000000000000000000000000000000000000000000000,
100000100000200000000000100000000000200000100000,
000000100000200000000000100000100000200000000000,
100000100000200000000000100000000000200000100000,
100000000000200000000000200000000000200000000000,
100000100000200000000000100000000000200000100000,
000000100000200000000000100000100000200000000000,
100000100000200000000000100000000000200000100000,
100000000000200000000000100000000000000000000000,
100000100000200000000000100000000000200000100000,
000000100000200000000000100000100000200000000000,
100000100000200000000000100000000000200000100000,
100000000000200000000000200000000000200000000000,
100000100000200000000000100000000000200000100000,
000000100000200000000000100000100000200000000000,
300000000000300000000000200000200000000000500000,
000000000000000000000000000000000800000000000000,
100000000000000000100000100000000000200000000000,
100000000000000000100000100000000000200000000000,
100000000000000000100000100000000000200000100000,
000000100000200000000000100000100000200000000000,
100000100100100000000000000000300000000000300000,
000000100000200000000000200000000000200000000000,
100000000000200000000000100000100000200000000000,
100000100000200000000000100000100000200000000000,
700000000000000000000000000000000800000000000000,
100000100000200000000000100000100000200000100000,
000000300000000300000000300000000000000000000000,
#GOGOSTART
100000000000200000000100100000000000200000100000,
000000100000200000100000000000200000200000000000,
100000000000200000000100100000000000200000100000,
000000100000200000100000000000000000000000000000,
100000000000200000000100100000000000200000100000,
000000100000200000100000000000200000200000100000,
000000100000200000100000000000100000200000000000,
100000000000000000000000000000000000000000000000,
100000000000200000000100100000000000200000100000,
000000100000200000100000000000200000200000000000,
100000000000200000000100100000000000200000700000,
000000000000000000000000000000000800000000000000,
#GOGOEND
100000000000000000100000100000000000200000000000,
100000000000000000100000100000000000200000000000,
500000000000000000000000000000000000000000000000,
000000000000000000000000000000000800000000000000,
100000000000000000100000100000000000200000000000,
300000000000300000000000300000000000300000000000,
600000000000000000000000000000000800000000000000,
300000000000000000000000000000000000000000000000,
100000100000200000100000000000100000200000100000,
000000100000200000100000000000100000200000000000,
100000100000200000100000000000100000200000100000,
000000000000200000000000200000000000200000000000,
100000100000200000100000000000100000200000100000,
000000100000200000100000000000100000200000000000,
100000100000200000000000100000100000200000500000,
000000000000000000000000000000000000000000000800,
000000000000300000000000000000000000000000000000,
000000003000000030000000300000000000000000000000,
#END
COURSE:Normal
LEVEL:3
BALLOON:3,3,6
SCOREINIT:1160
SCOREDIFF:360
#START
500000000000000000000000800000000000000000000000,
100000000000000000000000100000000000000000100000,
000000000000000000000000000000000000000000000000,
100000000000100000000000100000000000000000100000,
000000000000000000000000000000000000000000000000,
100000000000000000000000100000000000000000100000,
000000000000000000000000000000000000000000000000,
100000000000100000000000100000000000000000100000,
000000000000000000000000000000000000000000000000,
000000000000000000000000000000000000000000000000,
100000000000000000000000100000000000000000000000,
100000000000100000000000100000000000000000000000,
100000000000000000000000100000000000000000000000,
200000000000200000000000200000000000000000000000,
100000000000000000000000100000000000000000000000,
100000000000100000000000100000000000000000000000,
100000000000100000000000100000000000000000000000,
200000000000000000000000000000000000000000000000,
100000000000000000000000100000000000000000000000,
100000000000100000000000100000000000000000000000,
100000000000000000000000100000000000000000000000,
200000000000200000000000200000000000000000000000,
100000000000000000000000100000000000000000000000,
100000000000100000000000100000000000000000000000,
300000000000300000000000000000000000000000500000,
000000000000000000000000800000000000000000000000,
100000000000000000000000100000000000000000000000,
100000000000000000000000100000000000000000000000,
100000000000100000000000100000000000000000000000,
100000000000000000000000000000000000000000000000,
100000000000100000000000000000300000000000300000,
000000000000200000000000200000000000000000000000,
500000000000000000000000000000800000000000000000,
100000000000000000000000100000000000000000000000,
700000000000000000000000000000800000000000000000,
100000000000000000000000100000000000000000000000,
700000000000000000000000000000800000000000000000,
#GOGOSTART
100000000000100000000000100000000000100000000000,
000000000000100000000000000000000000000000000000,
100000000000100000000000100000000000000000500000,
000000000000000000000000000000800000000000000000,
100000000000000000000000100000000000000000100000,
000000000000000000000000000000000000000000000000,
100000000000100000000000100000000000100000000000,
100000000000000000000000000000000000000000000000,
100000000000100000000000100000000000100000000000,
000000000000100000000000000000000000000000000000,
100000000000100000000000100000000000000000500000,
000000000000000000000000000000800000000000000000,
#GOGOEND
100000000000000000000000100000000000000000000000,
100000000000000000000000100000000000100000000000,
500000000000000000000000000000000000000000000000,
000000000000000000000000800000000000000000000000,
100000000000000000000000100000000000000000000000,
100000000000100000000000300000000000300000000000,
600000000000000000000000800000000000000000000000,
300000000000000000000000000000000000000000000000,
100000000000100000000000100000000000000000000000,
100000000000100000000000100000000000000000000000,
100000000000100000000000100000000000100000000000,
100000000000000000000000000000000000000000000000,
100000000000100000000000100000000000000000000000,
100000000000100000000000100000000000000000000000,
100000000000100000000000100000000000700000000000,
000000000000000000000000000000000000000000800000,
000000000000500000000000000000000000000000800000,
#END
COURSE:Easy
LEVEL:3
BALLOON:8
SCOREINIT:1070
SCOREDIFF:440
#START
000000000000000000000000000000000000000000000000,
100000000000000000000000100000000000000000000000,
100000000000000000000000000000000000000000000000,
100000000000000000000000100000000000000000000000,
100000000000000000000000000000000000000000000000,
100000000000000000000000100000000000000000000000,
100000000000000000000000000000000000000000000000,
100000000000000000000000100000000000000000000000,
500000000000000000000000000000000000000000800000,
000000000000000000000000000000000000000000000000,
100000000000000000000000100000000000000000000000,
100000000000100000000000100000000000000000000000,
100000000000000000000000100000000000000000000000,
100000000000000000000000000000000000000000000000,
100000000000000000000000100000000000000000000000,
100000000000100000000000100000000000000000000000,
100000000000000000000000100000000000000000000000,
100000000000000000000000000000000000000000000000,
100000000000000000000000100000000000000000000000,
100000000000100000000000100000000000000000000000,
100000000000000000000000100000000000000000000000,
100000000000000000000000000000000000000000000000,
100000000000000000000000100000000000000000000000,
100000000000100000000000100000000000000000000000,
300000000000000000000000000000000000000000500000,
000000000000000000000000800000000000000000000000,
100000000000000000000000000000000000000000000000,
100000000000000000000000200000000000000000000000,
100000000000000000000000000000000000000000000000,
100000000000000000000000000000000000000000000000,
100000000000000000000000000000000000000000000000,
100000000000000000000000000000000000000000000000,
100000000000000000000000000000000000000000000000,
100000000000000000000000000000000000000000000000,
100000000000000000000000000000000000000000000000,
100000000000000000000000100000000000000000000000,
100000000000000000000000000000000000000000000000,
#GOGOSTART
300000000000000000000000300000000000000000000000,
100000000000000000000000000000000000000000000000,
100000000000000000000000100000000000000000000000,
100000000000000000000000000000000000000000000000,
100000000000100000000000100000000000000000000000,
100000000000000000000000000000000000000000000000,
100000000000100000000000100000000000000000000000,
100000000000000000000000000000000000000000000000,
300000000000000000000000300000000000000000000000,
100000000000000000000000000000000000000000000000,
100000000000000000000000100000000000000000000000,
100000000000000000000000000000000000000000000000,
#GOGOEND
100000000000000000000000000000000000000000000000,
100000000000000000000000100000000000000000000000,
500000000000000000000000000000000000000000800000,
000000000000000000000000000000000000000000000000,
100000000000000000000000100000000000000000000000,
100000000000100000000000100000000000100000000000,
500000000000000000000000800000000000000000000000,
900000000000000000000000000000000000000000000000,
000000000000000000000000000000000000000000000000,
000000000000000000000000000000800000000000000000,
100000000000000000000000100000000000000000000000,
100000000000000000000000000000000000000000000000,
100000000000000000000000100000000000000000000000,
100000000000100000000000100000000000000000000000,
100000000000000000000000100000000000000000000000,
100000000000000000000000000000000000000000000000,
000000000000500000000000000000000000000000800000,
#END