Files
2023-06-15 19:15:39 -05:00

323 lines
13 KiB
Plaintext
Raw Permalink Blame History

This file contains ambiguous Unicode characters
This file contains Unicode characters that might be confused with other characters. If you think that this is intentional, you can safely ignore this warning. Use the Escape button to reveal them.
//TJADB Project
TITLE:Koi♥Kuru
TITLEJA:コイクル
SUBTITLE:--Marina Kuroki/Onegai My Melody ~Kuru Kuru Shuffle!~
BPM:172
WAVE:Koi Kuru.ogg
OFFSET:-3.236
DEMOSTART:49.118
COURSE:Oni
LEVEL:8
SCOREINIT:660
SCOREDIFF:130
#START
100100100000100100100000100100200000100000200000,
000000200000100000200000000000200200200000000000,
100100100000100100100000100100200000100100200000,
000000000000000000000000200200000200200200200000,
100100100000100100100000100100200000100000200000,
000000200000100000200000000000200200200000000000,
100000100100100000300000000000300000000000500000,
000000000000000000000000000000000000000000000008,
000000000000000000000200200200000200200000200000,
100000200200100000200000100000100000200200100000,
100000200200200000100000000000100200100000000000,
100000200200100000200000100000100000200200100000,
100000200200200000100000000000100200100000100200,
100000000000100000200000200000000000200000000000,
200000200000200000100000000000000000000000100000,
100000200200100000200000100000100000000000100100,
100000100100100000100100100000100100200100200100,
100000200200100000200000100100100000200200100000,
100000200200200000100000000000100200100000100200,
100000200200100000200000100100100000200200100000,
100000200200200000100000000000100200100000100200,
100000200200200000100100100000200200200000100100,
100000200000100100100000200000100100100000000000,
500000000000000000000000000000000000000000000008,
000000000000000000000200200200000200200000200000,
100000000000200000000000100000100000200000100000,
100000000000200000100000100000100000200000000000,
100000000000200000000000100000000000200000100000,
000000200000200000200200200000200200200000100000,
100100100000200000100100100000200000200000100100,
100000200000200000200000100100100000200200200000,
100100200200100100200200100100200200100100200200,
000000300000300000000000300000300000000000100000,
#GOGOSTART
000000100100200000200000100100200000100100200200,
100000100100200000000000100100200200200000100000,
000000100100200000200000100100200000100100200200,
100000100100200000000000100100200200200000100000,
200000100200200000200200100000100100200200100000,
200000100200200000200200100000100100200200100000,
000000100100100000100000100100200200100100200200,
100100100000100100100000200200100100200000100000,
000000100100200000200000100100200000100100200200,
100000100100200000000000100100200200100000100000,
000000100100200000100200100200100000000000300000,
000000300000000000300000000000300000000000300000,
000000200200200000000000100100100000200200200000,
100100200200100100200000000000200200200000000000,
100100100000100100100000100100100100100100100000,
000000300000300000000000000000000000000000100000,
000000000000000000000000100000000000000000000000,
100000000000100000000000100100200200100100200200,
#GOGOEND
100100100000100100100000100100200000100000200000,
000000200000100000200000000000200200200000000000,
100100100000100100100000100100200000100100200000,
000000000000000000000000200200000200200200200000,
100100100000100100100000100100200000100000200000,
000000200000100000200000000000200200200000000000,
100000100100100000300000000000300000000000500000,
000000000000000000000000000008000000000000300000,
000000300000300000000000000000000000000000200000,
000000200000200000000000200000200000000000300000,
000000300000300000000000000000000000000000000000,
#END
COURSE:Hard
LEVEL:4
SCOREINIT:950
SCOREDIFF:230
#START
100000000000100000100000000000100000000000200000,
000000200000000000200000000000200000200000000000,
100000000000100000100000000000200000000000200000,
000000000000000000000000000000000000000000000000,
100000000000100000100000000000100000000000200000,
000000200000000000200000000000200000200000000000,
300000000000000000300000000000000000000000500000,
000000000000000000000000000000000000000000000800,
000000000000000000000000000000000000000000000000,
100000000000100000000000100000200000000000200000,
100000000000100000100000000000000000000000000000,
100000000000100000000000100000200000000000200000,
100000000000100000100000000000000000000000000000,
000000000000100000100000100000000000100000000000,
100000100000100000100000000000000000000000000000,
100000000000100000000000100000200000000000200000,
000000100000100000100000100000000000000000000000,
100000000000100000000000100000200000000000200000,
100000000000200000200000000000000000000000000000,
100000000000100000000000100000200000000000200000,
100000000000200000200000000000000000200000000000,
100000000000000000100000100000000000200000000000,
100000000000200000200000000000200000200000000000,
500000000000000000000000000000000000000000000800,
000000000000000000000000000000000000000000000000,
100000000000100000000000100000000000100000100000,
000000000000000000200000200000000000000000000000,
100000000000100000000000100000000000100000100000,
000000000000000000200000200000000000200000200000,
000000000000000000100000100000000000000000100000,
100000000000000000000000100000000000100000000000,
500000000000000000000000000000000800000000000000,
000000100000100000000000300000000000000000100000,
#GOGOSTART
000000100100100000000000100000000000000000100000,
000000100100100000000000100000000000000000100000,
000000100100100000000000100000000000000000100000,
000000100100100000000000100000000000000000000000,
100000200000100000200000000000000000000000000000,
100000200000100000200000000000000000000000000000,
100000000000000000000000100000200000100000200000,
100000200000100000200000000000000000000000100000,
000000100100100000000000100000000000000000100000,
000000100100100000000000100000000000000000100000,
000000100100100000000000100000000000000000300000,
000000300000000000300000000000300000000000300000,
000000000000000000000000100000000000100000000000,
100000200000100000200000000000000000000000000000,
100000200000100000200000000000200000000000300000,
000000000000000000000000000000000000000000100000,
000000000000000000000000100000000000000000000000,
100000000000100000000000100000100000100000000000,
#GOGOEND
100000000000100000100000000000100000000000200000,
000000200000000000200000000000200000200000000000,
100000000000100000100000000000200000000000200000,
000000000000000000000000000000000000000000000000,
100000000000100000100000000000100000000000200000,
000000200000000000200000000000200000200000000000,
300000000000000000300000000000000000000000500000,
000000000000000000000000000000000000000000000800,
000000000000000000000000000000000000000000200000,
000000200000200000000000200000200000000000300000,
000000300000300000000000000000000000000000000000,
#END
COURSE:Normal
LEVEL:4
BALLOON:11,13
SCOREINIT:1190
SCOREDIFF:420
#START
100000000000100000000000000000000000000000200000,
000000200000000000200000000000000000000000000000,
100000000000100000000000000000000000000000100000,
000000000000000000000000000000000000000000000000,
100000000000100000000000000000000000000000200000,
000000200000000000200000000000000000000000000000,
300000000000000000300000000000000000000000500000,
000000000000000000000000000000000000000000800000,
000000000000000000000000000000000000000000000000,
100000000000000000000000100000000000000000000000,
100000000000100000100000000000000000000000000000,
100000000000000000000000100000000000000000000000,
100000000000100000100000000000000000000000000000,
100000000000100000000000100000000000000000000000,
200000000000200000000000200000000000000000000000,
100000000000000000000000100000000000000000000000,
200000000000000000000000000000000000000000000000,
100000000000000000000000100000000000000000000000,
100000000000100000100000000000000000000000000000,
100000000000000000000000100000000000000000000000,
100000000000100000100000000000000000000000000000,
100000000000100000000000100000000000000000000000,
200000000000200000000000200000000000000000500000,
000000000000000000000000000000000000000000800000,
000000000000000000000000000000000000000000000000,
100000000000100000000000100000000000100000000000,
100000000000000000000000000000000000000000000000,
100000000000100000000000100000000000100000000000,
100000000000000000000000000000000000000000000000,
100000000000200000000000100000000000200000000000,
100000000000000000000000900000000000000000000000,
000000000000000000000000000000000000000000800000,
000000000000000000000000000000000000000000000000,
#GOGOSTART
000000000000000000000000300000000000000000300000,
000000000000300000000000000000000000000000000000,
000000000000000000000000300000000000000000300000,
000000000000300000000000000000000000200000000000,
000000000000200000000000000000000000200000000000,
000000000000200000000000000000000000200000000000,
000000000000000000000000100000000000100000000000,
100000000000100000000000000000000000000000000000,
000000000000000000000000300000000000000000300000,
000000000000300000000000000000000000000000500000,
000000000000000000000000800000000000000000100000,
000000100000000000100000000000100000000000100000,
000000000000000000000000300000000000000000000000,
400000000000000000000000000000000000000000000000,
100000000000000000300000000000300000000000300000,
000000000000000000000000000000000000000000700000,
000000000000000000000000000000000000000000000000,
000000000000000000000000000000800000000000000000,
#GOGOEND
100000000000100000000000000000000000000000200000,
000000200000000000200000000000000000000000000000,
300000000000000000000000000000100000000000200000,
000000000000000000000000000000000000000000000000,
100000000000100000000000000000000000000000200000,
000000200000000000200000000000000000000000000000,
100000000000000000100000000000100000000000600000,
000000000000000000000000000000000000000000800000,
000000000000000000000000000000000000000000300000,
000000000000000000000000000000000000000000300000,
000000000000400000000000000000000000000000000000,
#END
COURSE:Easy
LEVEL:2
BALLOON:8,4,10
SCOREINIT:1310
SCOREDIFF:420
#START
100000000000000000000000000000000000000000200000,
000000200000000000200000000000000000000000000000,
300000000000000000000000000000000000000000000000,
000000000000000000000000000000000000000000000000,
100000000000000000000000000000000000000000200000,
000000200000000000200000000000000000000000000000,
300000000000000000000000000000000000000000500000,
000000000000000000000000000000000000000000800000,
000000000000000000000000000000000000000000000000,
100000000000000000000000100000000000000000000000,
100000000000000000000000000000000000000000000000,
100000000000000000000000100000000000000000000000,
100000000000000000000000000000000000000000000000,
100000000000000000000000100000000000000000000000,
200000000000000000000000000000000000000000000000,
100000000000000000000000100000000000000000000000,
200000000000000000000000000000000000000000000000,
100000000000000000000000100000000000000000000000,
100000000000000000000000000000000000000000000000,
100000000000000000000000100000000000000000000000,
100000000000000000000000000000000000000000000000,
100000000000000000000000100000000000000000000000,
200000000000000000000000000000000000000000500000,
000000000000000000000000000000000000000000800000,
000000000000000000000000000000000000000000000000,
100000000000000000000000200000000000000000000000,
100000000000000000000000000000000000000000000000,
100000000000000000000000200000000000000000000000,
100000000000000000000000000000000000000000000000,
100000000000000000000000100000000000000000000000,
100000000000000000000000900000000000000000000000,
000000000000000000000000000000000000000000800000,
000000000000000000000000000000000000000000500000,
#GOGOSTART
000000000000000000800000000000000000000000300000,
000000000000300000000000000000000000000000500000,
000000000000000000800000000000000000000000300000,
000000000000300000000000000000000000200000000000,
000000000000200000000000000000000000200000000000,
000000000000200000000000000000000000200000000000,
000000000000000000000000100000000000100000000000,
100000000000000000000000000000000000000000500000,
000000000000000000800000000000000000000000300000,
000000000000300000000000000000000000000000500000,
000000000000000000800000000000000000700000000000,
000000000000000000000000800000000000000000400000,
000000000000000000000000100000000000000000000000,
300000000000000000000000000000000000000000000000,
000000000000000000300000000000300000000000300000,
000000000000000000000000000000000000000000700000,
000000000000000000000000000000000000000000000000,
000000000000000000000000000000800000000000000000,
#GOGOEND
100000000000000000000000000000000000000000200000,
000000200000000000200000000000000000000000000000,
300000000000000000000000000000000000000000000000,
000000000000000000000000000000000000000000000000,
100000000000000000000000000000000000000000200000,
000000200000000000200000000000000000000000000000,
400000000000000000000000000000000000000000600000,
000000000000000000000000000000000000000000800000,
000000000000000000000000000000000000000000300000,
#END