Files
2023-06-15 19:15:39 -05:00

613 lines
24 KiB
Plaintext
Raw Permalink Blame History

This file contains ambiguous Unicode characters
This file contains Unicode characters that might be confused with other characters. If you think that this is intentional, you can safely ignore this warning. Use the Escape button to reveal them.
//TJADB Project
TITLE:Kumon Kourin ~Magical Force~
TITLEJA:呪文降臨~マジカル・フォース
SUBTITLE:--YOFFY feat. Sister MAYO/Mahou Sentai Magiranger
BPM:163
WAVE:Kumon Kourin ~Magical Force~.ogg
OFFSET:-1.718
DEMOSTART:57.674
COURSE:Oni
LEVEL:7
BALLOON:25
SCOREINIT:780
SCOREDIFF:140
#START
100000200000100000200000100000100000200000200000,
100100200000200000000000000000000000000000000000,
100000000000100000000000100000100000100000000000,
100000100000100000100000000000100000100000000000,
100000000000200000000000100000100000200000000000,
100000100000100000100000000000000000000000000000,
100000000000100000000000100000000000100000000000,
100000000000100000000000100000000000000000000000,
100000000000200000000000100000100000200000000000,
100000100000200000000000100000000000200000000000,
100000000000100000000000100000100000100000000000,
000000001000000000100000200000100000000000000000,
100000200000100000200000100000100000200000100000,
100100100000200000200000100000200000200000000000,
100000200000100000200000100100200000100000200000,
100100100000200000100100100000200000200000000000,
100000200000100100200000100000200000100000200000,
100000200200200000200000100000100000100000200000,
100100200000100000200000100100200000100000200000,
100000200000100100100000100000200000200000000000,
100000200000100000200000100100100000200000100000,
100100100000200000200000100000200000200000000000,
100000200000100000200000100100100000200000200000,
100100100000200000100000100000200000200000000000,
100000200000100100100000200200200000100000200000,
100000200200200000200000100000200000100000200000,
100000200000100000100000200200200000100000100000,
200000200000100100100000200200200000100000000000,
100000200200200000100100100000100000200000000000,
100000200200200000100100100000200000200000000000,
100000100100100000100100100000200000200000000000,
100000200000100000200000200200200000200000000000,
100000200000100000200000100100200000100000200000,
100100100000200000200000100100200000200000100000,
100000200000100000200000100100200000100000200000,
500000000000000000000000000000000800000000000000,
100000200000100000200000100000100000200000200000,
100100200000200000000000000000000000000000000000,
#GOGOSTART
100000200000100100100000200000200000100100100000,
100000200000100100100000100000200200100000200000,
100000200000100100100000200000200000100100100000,
100000200000100100100000100000100100100000000000,
100000200000100000200000100000100000100100100000,
100000200000100100100000200200000200200000200000,
100000100100100000100000100100100000100000200000,
500000000000000000000000000000000800000000000000,
100000200000100100100000100000200200100000200000,
100000200000100100100000200200000200200000200000,
100000200000100100100000100000200200100000200000,
100000200000100100100000100100000100100000000000,
100000200000100000200000100000200000100000200000,
100000200000100100200000100100000100100000200000,
100000200200100000200000100000200200100000200000,
500000000000000000000000000000000800000000000000,
100100100000200000200000100100100000200000200000,
100000100100100000100000100100100000200000000000,
100000200000100000200000100000200000100000200000,
100100200200200000000000300000000000300000000000,
300000000000700000000000000000000000000000000000,
000000000000000000000000000800000000000000000000,
#GOGOEND
#END
COURSE:Hard
LEVEL:5
BALLOON:25
SCOREINIT:740
SCOREDIFF:220
#START
000000000000000000000000000000000000000000000000,
300000000000300000000000000000000000000000000000,
100000000000100000000000100000100000100000000000,
100000000000100000100000000000100000100000000000,
100000000000100000000000100000100000200000000000,
100000000000100000100000000000200000200000000000,
100000000000100000000000200000200000200000000000,
100000000000200000200000000000200000200000000000,
100000000000200000000000100000000000000000000000,
100000000000200000000000100000000000000000000000,
100000000000100000000000100000100000100000000000,
000000001000000000100000100000100000000000000000,
100000000000200000000000100000100000200000000000,
100000000000100000100000000000200000200000000000,
100000000000200000000000100000100000200000000000,
100000000000100000000000200000200000200000000000,
100000000000100000000000100000100000100000000000,
100000000000200000200000000000200000200000000000,
100000000000100000000000200000200000200000000000,
500000000000000000000000800000000000000000000000,
100000000000200000000000100000100000200000000000,
100000000000100000100000000000200000200000000000,
100000000000200000000000100000100000200000000000,
100000000000100000000000200000200000200000000000,
100000000000100000000000100000100000100000000000,
100000000000200000200000000000200000200000000000,
100000000000200000000000100000000000200000000000,
500000000000000000000000800000000000000000000000,
100000000000000000100100100000000000200000000000,
100000000000000000100100100000000000200000000000,
100000000000000000100100100000000000000000000000,
200000000000200000000000200000200000200000000000,
100000000000100000000000100000100000200000000000,
100000000000200000000000100000000000200000000000,
100000000000100000000000100000100000200000000000,
500000000000000000000000000000800000000000000000,
100000100000100000100000200000200000200000000000,
300000000000300000000000000000000000000000000000,
#GOGOSTART
100000200000100000200000100000000000100000000000,
100000200000100000200000100000200000200000000000,
100000200000100000200000100000000000100000000000,
100000200000100000200000100000200000200000000000,
100000000000200000000000100000000000200000000000,
100000000000200000100000000000200000200000000000,
100000000000100000000000200000000000200000000000,
500000000000000000000000000000800000000000000000,
100000200000100000200000100000000000100000000000,
100000200000100000200000200000200000200000000000,
100000200000100000200000100000000000100000000000,
100000200000100000200000200000200000200000000000,
100000000000200000000000100000100000200000000000,
100000000000100000100000000000200000200000000000,
100000200000100000200000100000200000100000000000,
500000000000000000000000000000800000000000000000,
100000000000200000000000100000100000200000000000,
100000000000200000100000000000000000100000000000,
500000000000000000000000000000800000000000000000,
100000100100100000000000300000000000300000000000,
300000000000700000000000000000000000000000000000,
000000000000000000000000000000800000000000000000,
#GOGOEND
#END
COURSE:Normal
LEVEL:4
STYLE:Double
SCOREINIT:960
#START P1
#SCROLL 0.8
000000000000000000000000000000000000000000000000,
300000000000300000000000000000000000000000000000,
000000000000000000000000000000000000000000000000,
000000000000000000000000000000000000000000000000,
100000000000000000000000100000000000000000000000,
100000000000100000100000000000000000000000000000,
100000000000000000000000200000000000000000000000,
100000000000000000000000200000000000000000000000,
100000000000000000000000100000000000000000000000,
100000000000000000000000100000000000000000000000,
100000000000100000000000100000000000100000000000,
000000000000000000000000000000000000000000000000,
1212,
1120,
1110,
,
100000000000000000000000100000000000000000000000,
100000000000200000000000100000000000000000000000,
100000000000000000000000100000000000000000000000,
500000000000000000000000800000000000000000000000,
1212,
1120,
,
2220,
100000000000000000000000100000000000000000000000,
100000000000200000000000100000000000000000000000,
100000000000000000000000100000000000000000000000,
500000000000000000000000800000000000000000000000,
100000000000000000000000400000000000000000000000,
100000000000000000000000400000000000000000000000,
100000000000000000000000100000000000000000000000,
500000000000000000000000800000000000000000000000,
100000000000100000000000200000000000200000000000,
100000000000200000000000100000000000000000000000,
100000000000100000000000200000000000200000000000,
500000000000000000000000800000000000000000000000,
100000000000100000000000200000000000200000000000,
300000000000300000000000000000000000000000000000,
#GOGOSTART
100000000000100000000000100000100000100000000000,
100000000000100000000000200000000000000000000000,
100000000000100000000000100000100000100000000000,
100000000000100000000000200000000000000000000000,
100000000000200000000000100000000000200000000000,
100000000000200000000000100000000000000000000000,
100000000000100000000000100000000000000000500000,
000000000000000000000000000000800000000000000000,
100000000000200000000000100000100000100000000000,
100000000000100000000000200000000000000000000000,
100000000000200000000000100000100000100000000000,
100000000000100000000000200000000000000000000000,
100000000000200000000000100000000000000000000000,
100000000000200000000000100000000000000000000000,
100000000000100000000000100000000000000000500000,
000000000000000000000000000000800000000000000000,
000000000000100000000000100000000000100000000000,
100000000000000000100000000000000000100000000000,
500000000000000000000000000000800000000000000000,
300000000000000000000000100000000000100000000000,
100000000000500000000000000000000000000000000000,
000000000000000000000000000000800000000000000000,
#GOGOEND
#END
#START P2
#SCROLL 0.8
000000000000000000000000000000000000000000000000,
300000000000300000000000000000000000000000000000,
000000000000000000000000000000000000000000000000,
000000000000000000000000000000000000000000000000,
100000000000000000000000100000000000000000000000,
100000000000100000100000000000000000000000000000,
100000000000000000000000200000000000000000000000,
100000000000000000000000200000000000000000000000,
100000000000000000000000100000000000000000000000,
100000000000000000000000100000000000000000000000,
100000000000100000000000100000000000100000000000,
000000000000000000000000000000000000000000000000,
1212,
1120,
,
2220,
100000000000000000000000100000000000000000000000,
100000000000200000000000100000000000000000000000,
100000000000000000000000100000000000000000000000,
500000000000000000000000800000000000000000000000,
1212,
1120,
1110,
,
100000000000000000000000100000000000000000000000,
100000000000200000000000100000000000000000000000,
100000000000000000000000100000000000000000000000,
500000000000000000000000800000000000000000000000,
100000000000000000000000400000000000000000000000,
100000000000000000000000400000000000000000000000,
100000000000000000000000100000000000000000000000,
500000000000000000000000800000000000000000000000,
100000000000100000000000200000000000200000000000,
100000000000200000000000100000000000000000000000,
100000000000100000000000200000000000200000000000,
500000000000000000000000800000000000000000000000,
100000000000100000000000200000000000200000000000,
300000000000300000000000000000000000000000000000,
#GOGOSTART
100000000000100000000000100000100000100000000000,
100000000000100000000000200000000000000000000000,
100000000000100000000000100000100000100000000000,
100000000000100000000000200000000000000000000000,
100000000000200000000000100000000000200000000000,
100000000000200000000000100000000000000000000000,
100000000000100000000000100000000000000000500000,
000000000000000000000000000000800000000000000000,
100000000000200000000000100000100000100000000000,
100000000000100000000000200000000000000000000000,
100000000000200000000000100000100000100000000000,
100000000000100000000000200000000000000000000000,
100000000000200000000000100000000000000000000000,
100000000000200000000000100000000000000000000000,
100000000000100000000000100000000000000000500000,
000000000000000000000000000000800000000000000000,
000000000000100000000000100000000000100000000000,
100000000000000000100000000000000000100000000000,
500000000000000000000000000000800000000000000000,
300000000000000000000000100000000000100000000000,
100000000000500000000000000000000000000000000000,
000000000000000000000000000000800000000000000000,
#GOGOEND
#END
STYLE:Single
SCOREINIT:910
SCOREDIFF:340
#START
#SCROLL 0.8
000000000000000000000000000000000000000000000000,
300000000000300000000000000000000000000000000000,
000000000000000000000000000000000000000000000000,
000000000000000000000000000000000000000000000000,
100000000000000000000000100000000000000000000000,
100000000000100000100000000000000000000000000000,
100000000000000000000000200000000000000000000000,
100000000000000000000000200000000000000000000000,
100000000000000000000000100000000000000000000000,
100000000000000000000000100000000000000000000000,
100000000000100000000000100000000000100000000000,
000000000000000000000000000000000000000000000000,
100000000000200000000000100000000000200000000000,
100000000000100000000000200000000000000000000000,
100000000000100000000000100000000000000000000000,
200000000000200000000000200000000000000000000000,
100000000000000000000000100000000000000000000000,
100000000000200000000000100000000000000000000000,
100000000000000000000000100000000000000000000000,
500000000000000000000000800000000000000000000000,
100000000000200000000000100000000000200000000000,
100000000000100000000000200000000000000000000000,
100000000000100000000000100000000000000000000000,
200000000000200000000000200000000000000000000000,
100000000000000000000000100000000000000000000000,
100000000000200000000000100000000000000000000000,
100000000000000000000000100000000000000000000000,
500000000000000000000000800000000000000000000000,
100000000000000000000000400000000000000000000000,
100000000000000000000000400000000000000000000000,
100000000000000000000000100000000000000000000000,
500000000000000000000000800000000000000000000000,
100000000000100000000000200000000000200000000000,
100000000000200000000000100000000000000000000000,
100000000000100000000000200000000000200000000000,
500000000000000000000000800000000000000000000000,
100000000000100000000000200000000000200000000000,
300000000000300000000000000000000000000000000000,
#GOGOSTART
100000000000100000000000100000100000100000000000,
100000000000100000000000200000000000000000000000,
100000000000100000000000100000100000100000000000,
100000000000100000000000200000000000000000000000,
100000000000200000000000100000000000200000000000,
100000000000200000000000100000000000000000000000,
100000000000100000000000100000000000000000500000,
000000000000000000000000000000800000000000000000,
100000000000200000000000100000100000100000000000,
100000000000100000000000200000000000000000000000,
100000000000200000000000100000100000100000000000,
100000000000100000000000200000000000000000000000,
100000000000200000000000100000000000000000000000,
100000000000200000000000100000000000000000000000,
100000000000100000000000100000000000000000500000,
000000000000000000000000000000800000000000000000,
000000000000100000000000100000000000100000000000,
100000000000000000100000000000000000100000000000,
500000000000000000000000000000800000000000000000,
300000000000000000000000100000000000100000000000,
100000000000500000000000000000000000000000000000,
000000000000000000000000000000800000000000000000,
#GOGOEND
#END
COURSE:Easy
LEVEL:2
STYLE:Double
SCOREINIT:1100
#START P1
#SCROLL 0.8
000000000000000000000000000000000000000000000000,
300000000000300000000000000000000000000000000000,
000000000000000000000000000000000000000000000000,
000000000000000000000000000000000000000000000000,
100000000000000000000000100000000000000000000000,
100000000000000000000000000000000000000000000000,
100000000000000000000000200000000000000000000000,
100000000000000000000000200000000000000000000000,
100000000000000000000000000000000000000000000000,
100000000000000000000000000000000000000000000000,
100000000000000000000000100000000000000000000000,
000000000000000000000000000000000000000000000000,
11,
22,
11,
,
100000000000000000000000200000000000000000000000,
100000000000000000000000000000000000000000000000,
100000000000000000000000200000000000000000000000,
100000000000000000000000000000000000000000000000,
11,
22,
,
22,
100000000000000000000000200000000000000000000000,
100000000000000000000000000000000000000000000000,
100000000000000000000000100000000000000000000000,
200000000000000000000000000000000000000000000000,
100000000000000000000000400000000000000000000000,
100000000000000000000000400000000000000000000000,
500000000000000000000000000000000000800000000000,
000000000000000000000000000000000000000000000000,
100000000000000000000000100000000000000000000000,
200000000000000000000000000000000000000000000000,
100000000000000000000000100000000000000000000000,
500000000000000000000000000000000000800000000000,
000000000000000000000000000000000000000000000000,
300000000000300000000000000000000000000000000000,
#GOGOSTART
100000000000000000000000100000000000000000000000,
300000000000000000000000000000000000000000000000,
200000000000000000000000200000000000000000000000,
400000000000000000000000000000000000000000000000,
100000000000000000000000200000000000000000000000,
100000000000000000000000200000000000000000000000,
100000000000000000000000100000000000000000000000,
500000000000800000000000000000000000000000000000,
100000000000000000000000100000000000000000000000,
300000000000000000000000000000000000000000000000,
200000000000000000000000200000000000000000000000,
400000000000000000000000000000000000000000000000,
100000000000000000000000200000000000000000000000,
100000000000000000000000200000000000000000000000,
100000000000000000000000100000000000000000000000,
500000000000000000000000800000000000000000000000,
100000000000000000000000100000000000000000000000,
100000000000100000000000100000000000000000000000,
500000000000000000000000800000000000000000000000,
300000000000000000000000100000000000100000000000,
100000000000500000000000000000000000000000000000,
000000000000800000000000000000000000000000000000,
#GOGOEND
#END
#START P2
#SCROLL 0.8
000000000000000000000000000000000000000000000000,
300000000000300000000000000000000000000000000000,
000000000000000000000000000000000000000000000000,
000000000000000000000000000000000000000000000000,
100000000000000000000000100000000000000000000000,
100000000000000000000000000000000000000000000000,
100000000000000000000000200000000000000000000000,
100000000000000000000000200000000000000000000000,
100000000000000000000000000000000000000000000000,
100000000000000000000000000000000000000000000000,
100000000000000000000000100000000000000000000000,
000000000000000000000000000000000000000000000000,
11,
22,
,
22,
100000000000000000000000200000000000000000000000,
100000000000000000000000000000000000000000000000,
100000000000000000000000200000000000000000000000,
100000000000000000000000000000000000000000000000,
11,
22,
11,
,
100000000000000000000000200000000000000000000000,
100000000000000000000000000000000000000000000000,
100000000000000000000000100000000000000000000000,
200000000000000000000000000000000000000000000000,
100000000000000000000000400000000000000000000000,
100000000000000000000000400000000000000000000000,
500000000000000000000000000000000000800000000000,
000000000000000000000000000000000000000000000000,
100000000000000000000000100000000000000000000000,
200000000000000000000000000000000000000000000000,
100000000000000000000000100000000000000000000000,
500000000000000000000000000000000000800000000000,
000000000000000000000000000000000000000000000000,
300000000000300000000000000000000000000000000000,
#GOGOSTART
100000000000000000000000100000000000000000000000,
300000000000000000000000000000000000000000000000,
200000000000000000000000200000000000000000000000,
400000000000000000000000000000000000000000000000,
100000000000000000000000200000000000000000000000,
100000000000000000000000200000000000000000000000,
100000000000000000000000100000000000000000000000,
500000000000800000000000000000000000000000000000,
100000000000000000000000100000000000000000000000,
300000000000000000000000000000000000000000000000,
200000000000000000000000200000000000000000000000,
400000000000000000000000000000000000000000000000,
100000000000000000000000200000000000000000000000,
100000000000000000000000200000000000000000000000,
100000000000000000000000100000000000000000000000,
500000000000000000000000800000000000000000000000,
100000000000000000000000100000000000000000000000,
100000000000100000000000100000000000000000000000,
500000000000000000000000800000000000000000000000,
300000000000000000000000100000000000100000000000,
100000000000500000000000000000000000000000000000,
000000000000800000000000000000000000000000000000,
#GOGOEND
#END
STYLE:Single
SCOREINIT:1000
SCOREDIFF:450
#START
#SCROLL 0.8
000000000000000000000000000000000000000000000000,
300000000000300000000000000000000000000000000000,
000000000000000000000000000000000000000000000000,
000000000000000000000000000000000000000000000000,
100000000000000000000000100000000000000000000000,
100000000000000000000000000000000000000000000000,
100000000000000000000000200000000000000000000000,
100000000000000000000000200000000000000000000000,
100000000000000000000000000000000000000000000000,
100000000000000000000000000000000000000000000000,
100000000000000000000000100000000000000000000000,
000000000000000000000000000000000000000000000000,
100000000000000000000000100000000000000000000000,
200000000000000000000000200000000000000000000000,
100000000000000000000000100000000000000000000000,
200000000000000000000000000000000000000000000000,
100000000000000000000000200000000000000000000000,
100000000000000000000000000000000000000000000000,
100000000000000000000000200000000000000000000000,
100000000000000000000000000000000000000000000000,
100000000000000000000000100000000000000000000000,
200000000000000000000000200000000000000000000000,
100000000000000000000000200000000000000000000000,
100000000000000000000000000000000000000000000000,
100000000000000000000000200000000000000000000000,
100000000000000000000000000000000000000000000000,
100000000000000000000000100000000000000000000000,
200000000000000000000000000000000000000000000000,
100000000000000000000000400000000000000000000000,
100000000000000000000000400000000000000000000000,
500000000000000000000000000000000000800000000000,
000000000000000000000000000000000000000000000000,
100000000000000000000000100000000000000000000000,
200000000000000000000000000000000000000000000000,
100000000000000000000000100000000000000000000000,
500000000000000000000000000000000000800000000000,
000000000000000000000000000000000000000000000000,
300000000000300000000000000000000000000000000000,
#GOGOSTART
100000000000000000000000100000000000000000000000,
300000000000000000000000000000000000000000000000,
200000000000000000000000200000000000000000000000,
400000000000000000000000000000000000000000000000,
100000000000000000000000200000000000000000000000,
100000000000000000000000200000000000000000000000,
100000000000000000000000100000000000000000000000,
500000000000800000000000000000000000000000000000,
100000000000000000000000100000000000000000000000,
300000000000000000000000000000000000000000000000,
200000000000000000000000200000000000000000000000,
400000000000000000000000000000000000000000000000,
100000000000000000000000200000000000000000000000,
100000000000000000000000200000000000000000000000,
100000000000000000000000100000000000000000000000,
500000000000000000000000800000000000000000000000,
100000000000000000000000100000000000000000000000,
100000000000100000000000100000000000000000000000,
500000000000000000000000800000000000000000000000,
300000000000000000000000100000000000100000000000,
100000000000500000000000000000000000000000000000,
000000000000800000000000000000000000000000000000,
#GOGOEND
#END