forked from ESE/ESE
431 lines
5.4 KiB
Plaintext
431 lines
5.4 KiB
Plaintext
//TJADB Project
|
||
TITLE:Let it Go ~Ari no Mama de~
|
||
TITLEJA:Let It Go~ありのままで~
|
||
SUBTITLE:--Takako Matsu/Frozen
|
||
BPM:137
|
||
WAVE:Let it Go ~Ari no Mama de~.ogg
|
||
OFFSET:-2.012
|
||
DEMOSTART:122.240
|
||
|
||
COURSE:Oni
|
||
LEVEL:4
|
||
BALLOON:10,10,15,18
|
||
SCOREINIT:660
|
||
SCOREDIFF:140
|
||
|
||
|
||
#START
|
||
|
||
|
||
20020200,
|
||
20020200,
|
||
20020202,
|
||
21,
|
||
22010200,
|
||
22010200,
|
||
22010202,
|
||
20000001,
|
||
10111020,
|
||
11010011,
|
||
22000221,
|
||
00000001,
|
||
01110022,
|
||
01100022,
|
||
11000222,
|
||
,
|
||
00110201,
|
||
11020201,
|
||
11020201,
|
||
1,
|
||
00112202,
|
||
00112020,
|
||
000000500000000000000000000000000000000000000008,
|
||
,
|
||
10110202,
|
||
10110202,
|
||
10221101,
|
||
11020202,
|
||
10110202,
|
||
10110202,
|
||
5,
|
||
000000000000000008000000000000000000100000100000,
|
||
01050000,
|
||
000000000000000008000000000000100000100000200000,
|
||
00000112,
|
||
00000011,
|
||
22201105,
|
||
000000000000000008000000000000100000100000500000,
|
||
000000000000000008000000000000100000200000500000,
|
||
000000000000000008000000000000100000100000200000,
|
||
02020210,
|
||
500000000000000000000000000008000000000000000000,
|
||
1110001110007000,
|
||
0811,
|
||
2220002220007000,
|
||
00800022,
|
||
10110070,
|
||
00000081,
|
||
20212112,
|
||
11002022,
|
||
1000200010102020,
|
||
1000200010102020,
|
||
1022201010002020,
|
||
1022201010002020,
|
||
1022201000100050,
|
||
000000000000000000000008000000000000100000000000,
|
||
1000111020200020,
|
||
21100030,
|
||
30330303,
|
||
3022201110222020,
|
||
|
||
#GOGOSTART
|
||
1000101000200011,
|
||
1000101000200022,
|
||
2000101020200022,
|
||
2020001000202011,
|
||
10110202,
|
||
01010120,
|
||
10101111,
|
||
1110111011101010,
|
||
|
||
#GOGOEND
|
||
600000000000000008000000
|
||
000000300000300000300000,
|
||
|
||
#GOGOSTART
|
||
0000111010202020,
|
||
0000222020202010,
|
||
0010101000222011,
|
||
1022200000303030,
|
||
0000111010202020,
|
||
0000222020202010,
|
||
0010111000102050,
|
||
500000000000000000000000000008000000000000000000,
|
||
1110001110006000,
|
||
000000000000000008000000000000000000300000000000,
|
||
1110001110006000,
|
||
000000000000000008000000000000000000300000300000,
|
||
1110401110407000,
|
||
0008,
|
||
|
||
#GOGOEND
|
||
3,
|
||
|
||
|
||
#END
|
||
|
||
|
||
COURSE:Hard
|
||
LEVEL:2
|
||
BALLOON:7,7,10,12,17
|
||
SCOREINIT:590
|
||
SCOREDIFF:143
|
||
|
||
|
||
#START
|
||
|
||
|
||
20020200,
|
||
20020200,
|
||
20020202,
|
||
2,
|
||
20020200,
|
||
20020200,
|
||
20020202,
|
||
20000001,
|
||
10111020,
|
||
22010011,
|
||
22000222,
|
||
00000001,
|
||
10110022,
|
||
01100022,
|
||
22000222,
|
||
,
|
||
00110101,
|
||
11020201,
|
||
11020201,
|
||
1,
|
||
00112202,
|
||
00112020,
|
||
000000500000000000000000000000000000000000000008,
|
||
,
|
||
10110201,
|
||
10110201,
|
||
10222201,
|
||
11020201,
|
||
10110201,
|
||
10110202,
|
||
5,
|
||
000000000000000008000000000000000000100000100000,
|
||
01050000,
|
||
000000000000000008000000000000100000100000100000,
|
||
00000222,
|
||
00000011,
|
||
22201105,
|
||
000000000000000008000000000000100000100000500000,
|
||
000000000000000008000000000000200000200000500000,
|
||
000000000000000008000000000000100000100000100000,
|
||
01020220,
|
||
500000000000000000000000000008000000000000000000,
|
||
30030070,
|
||
0833,
|
||
40040070,
|
||
00800022,
|
||
20010070,
|
||
00000801,
|
||
10112222,
|
||
11002020,
|
||
10201122,
|
||
10201122,
|
||
10221022,
|
||
11101020,
|
||
10221105,
|
||
000000000000000000000008000000000000100000000000,
|
||
10221101,
|
||
01100030,
|
||
30330307,
|
||
0008,//60
|
||
|
||
#GOGOSTART
|
||
10110201,
|
||
10110201,
|
||
10112201,
|
||
11010221,
|
||
00110201,
|
||
01010220,
|
||
10110446,
|
||
,//68
|
||
|
||
#GOGOEND
|
||
000000000008000000000000000000300000300000300000,//69
|
||
|
||
#GOGOSTART
|
||
00101122,
|
||
01102021,
|
||
01110221,
|
||
01100333,
|
||
00101122,
|
||
01102021,
|
||
01120225,
|
||
000000000000000000000000000008000000000000000000,
|
||
30030060,
|
||
000000000000000008000000000000000000300000000000,
|
||
30330260,
|
||
000000000000000008000000000000000000300000300000,
|
||
30330390,
|
||
0009,//83
|
||
|
||
#GOGOEND
|
||
8,
|
||
,
|
||
,
|
||
,
|
||
#END
|
||
|
||
COURSE:Normal
|
||
LEVEL:2
|
||
BALLOON:10,10,12
|
||
SCOREINIT:840
|
||
SCOREDIFF:268
|
||
|
||
#START
|
||
2,
|
||
2,
|
||
22,
|
||
2,
|
||
2,
|
||
2,
|
||
22,
|
||
2,
|
||
12,
|
||
2220,
|
||
12,
|
||
2,
|
||
12,
|
||
2220,
|
||
12,
|
||
2,
|
||
11,
|
||
2220,
|
||
2220,
|
||
2,
|
||
11,
|
||
2,
|
||
1,
|
||
,
|
||
11,
|
||
1120,
|
||
11,
|
||
1122,
|
||
11,
|
||
1122,
|
||
5,
|
||
000000000008000000000000000000000000000000000000,
|
||
9009,
|
||
8,
|
||
11,
|
||
22,
|
||
1110,
|
||
2,
|
||
11,
|
||
22,
|
||
1122,
|
||
500000000000000000000000000000000008000000000000,
|
||
30030060,
|
||
000000000008000000000000300000000000300000000000,
|
||
30030060,
|
||
000000000000000008000000000000000000000000000000,
|
||
10010050,
|
||
000000000000000000000008000000000000000000000000,
|
||
1110,
|
||
2,
|
||
1120,
|
||
1120,
|
||
1122,
|
||
1120,
|
||
1120,
|
||
1,
|
||
1122,
|
||
1120,
|
||
30030006,
|
||
000000000000000000000000000000000008000000000000,//60
|
||
|
||
#GOGOSTART
|
||
11,
|
||
22,
|
||
11,
|
||
1122,
|
||
11,
|
||
1122,
|
||
500000000000000000000000000008000000000000000000,
|
||
9009,//68
|
||
|
||
#GOGOEND
|
||
8,//69
|
||
|
||
#GOGOSTART
|
||
1120,
|
||
1120,
|
||
1122,
|
||
1120,
|
||
1120,
|
||
1120,
|
||
1122,
|
||
500000000000000000000000000008000000000000000000,
|
||
30030060,
|
||
000000000000000008000000000000000000000000000000,
|
||
30030060,
|
||
000000000000000008000000000000000000000000000000,
|
||
30030090,
|
||
0009,//83
|
||
|
||
#GOGOEND
|
||
8,
|
||
,
|
||
,
|
||
,
|
||
#END
|
||
|
||
COURSE:Easy
|
||
LEVEL:2
|
||
BALLOON:8,8,10
|
||
SCOREINIT:870
|
||
SCOREDIFF:360
|
||
|
||
#START
|
||
1,
|
||
1,
|
||
11,
|
||
1,
|
||
1,
|
||
1,
|
||
11,
|
||
1,
|
||
11,
|
||
1,
|
||
1,
|
||
2,
|
||
11,
|
||
1,
|
||
1,
|
||
2,
|
||
11,
|
||
22,
|
||
11,
|
||
1,
|
||
1,
|
||
2,
|
||
1,
|
||
,
|
||
11,
|
||
11,
|
||
22,
|
||
2,
|
||
11,
|
||
11,
|
||
500000000000000000000000000000000000000000000008,
|
||
,
|
||
9009,
|
||
8,
|
||
1,
|
||
1,
|
||
22,
|
||
2,
|
||
1,
|
||
1,
|
||
22,
|
||
2,
|
||
3006,
|
||
000000000000000008000000000000000000000000000000,
|
||
3006,
|
||
000000000000000008000000000000000000000000000000,
|
||
1005,
|
||
000000000000000008000000000000000000000000000000,
|
||
11,
|
||
1,
|
||
11,
|
||
22,
|
||
1110,
|
||
1110,
|
||
22,
|
||
1,
|
||
1110,
|
||
22,
|
||
10101005,
|
||
000000000000000000000000000008000000000000000000,//60
|
||
|
||
#GOGOSTART
|
||
11,
|
||
11,
|
||
22,
|
||
1110,
|
||
11,
|
||
22,
|
||
500000000000000000000000000008000000000000000000,
|
||
9009,//68
|
||
|
||
#GOGOEND
|
||
8,//69
|
||
|
||
#GOGOSTART
|
||
11,
|
||
22,
|
||
1110,
|
||
1110,
|
||
11,
|
||
22,
|
||
1110,
|
||
500000000000000000000000000008000000000000000000,
|
||
3006,
|
||
000000000000000008000000000000000000000000000000,
|
||
3006,
|
||
000000000000000008000000000000000000000000000000,
|
||
3009,
|
||
0009,//83
|
||
|
||
#GOGOEND
|
||
8,
|
||
,
|
||
,
|
||
,
|
||
#END |