Files
2023-01-17 00:45:18 -05:00

592 lines
14 KiB
Plaintext
Raw Permalink Blame History

This file contains ambiguous Unicode characters
This file contains Unicode characters that might be confused with other characters. If you think that this is intentional, you can safely ignore this warning. Use the Escape button to reveal them.
//TJADB Project
TITLE:Lion
TITLEJA:ライオン
SUBTITLE:--Cheryl Nome feat. May’n/Macross Frontier
SUBTITLEJA:「マクロスFrontier」より
BPM:145
WAVE:Lion.ogg
OFFSET:-1.906
DEMOSTART:41.633
COURSE:Edit
LEVEL:7
BALLOON:12,12
SCOREINIT:580
SCOREDIFF:153
#START
300000000000200000000200000000200000200000200000,
300000000000200000000200000000200000200000200000,
300000000000200000000200000000200000200000200000,
#BPMCHANGE 144.85
700000000000000000000000000000000008000000000000,
#BPMCHANGE 145.53
#SCROLL 0.99
300000100100100000400000200200200000300000100100,
#BPMCHANGE 144.77
#SCROLL 1
100000400000200200200000300000100100200100100000,
#BPMCHANGE 144.85
100100100000200000100200000200100000200000100000,
#BPMCHANGE 145
100100100000200000100200000200100000200000100000,
100100100000200000100200000200100000200000100000,
200000100100200000100000200000100100200000100000,
100100100000200000100200000200100000200000100000,
100100100000200000100200000200100000200000100000,
#BPMCHANGE 145.4
#SCROLL 0.99
200000100100200000100000200000100100200000100100,
#BPMCHANGE 145.02
100000100100200000100000200200100100200200100000,
#BPMCHANGE 143.67
#SCROLL 1
200200100000200000200100000100200000200000100000,
#BPMCHANGE 146.09
#SCROLL 0.99
200200100000200000200100000100200000200000100000,
#BPMCHANGE 144.96
#SCROLL 1
200200100000200000200100000100200000200000100000,
#BPMCHANGE 144.88
200200100000200000100000200200100000200000100000,
#BPMCHANGE 145
#SCROLL 0.99
200200100000200000200100000100200000200000100000,
#BPMCHANGE 144.43
#SCROLL 1
200200100000200000200100000100200000200000100000,
100100200000200000100200200000200000100200100000,
#BPMCHANGE 145.24
#SCROLL 0.99
100100200000200000100200200000200000100200100000,
100100200000100200200000100100200200100200100200,
#BPMCHANGE 145.71
700000000000000000000000000000000008000000000000,
#GOGOSTART
#BPMCHANGE 144.78
#SCROLL 1
100100100000200100000100000100200000100100200000,
#BPMCHANGE 145.52
#SCROLL 0.99
100100100000200100000100000100200000200200100000,
100100100000200100000100000100200000100100200000,
#BPMCHANGE 144.59
#SCROLL 1
100100100000200000100100100000200000100100200100,
#BPMCHANGE 144.87
100000100100200000100200000200100000200000100100,
#BPMCHANGE 144.67
100000100100200000100200000200100100200000100000,
#BPMCHANGE 145.4
#SCROLL 0.99
100000100100200000100200000200100000200000100100,
#BPMCHANGE 144.36
#SCROLL 1
200000100200100100200000100200100100200000000000,
#BPMCHANGE 146.09
#SCROLL 0.99
200200100000200100000100000100200000200100100000,
#BPMCHANGE 144.17
#SCROLL 1
200200100000200100000100000100200000100100200000,
#BPMCHANGE 145.58
#SCROLL 0.99
200200100000200100000100000100200000200100100000,
#BPMCHANGE 144.43
#SCROLL 1
100100100000200000100100100000200000100100200100,
#BPMCHANGE 145.13
#SCROLL 0.99
100000100100200000100200000200100000200000100100,
#BPMCHANGE 144.94
#SCROLL 1
100000100100200000100200000200100100200000300000,
000000100100200000300000000000100100200000400000,
#BPMCHANGE 145
#SCROLL 0.99
000000000000400000400000000000300000000000400000,
#BPMCHANGE 144.98
#SCROLL 1
000000300000600000000000000000000000000000000000,
#BPMCHANGE 144.59
000000000080000000000000200200100100200200100100,
#BPMCHANGE 145.11
#SCROLL 0.99
100000100100200000100100100000100100200000100200,
#BPMCHANGE 146.51
#SCROLL 0.98
100000100100200000100100100000100100200000100200,
#BPMCHANGE 144.41
#SCROLL 1
100000100100200000100100100000100100200000100200,
#BPMCHANGE 144.42
100000100200100100200000100200100100200000000000,
#BPMCHANGE 145
#SCROLL 0.99
100000100100200000100200000200100000200000100100,
100000100100200000100200000200100100200000300000,
#BPMCHANGE 145.81
000000100100200000300000000000100100200000400000,
#BPMCHANGE 143.12
#SCROLL 1.01
000000000000400000400000000000300000000000400000,
#BPMCHANGE 145.71
#SCROLL 0.99
000000300000600000000000000000000000000000000000,
#BPMCHANGE 146.47
#SCROLL 0.98
000000000000000000000000000000000080000000000000,
#GOGOEND
#BPMCHANGE 143.85
#SCROLL 1
000000200000200000000200200000200000000000200000,
000000200000200000200000000000000000000000000000,
#END
COURSE:Oni
LEVEL:6
BALLOON:10,16,16
SCOREINIT:740
SCOREDIFF:203
#START
0000200200202020,
2000200200202020,
2000200200202020,
#BPMCHANGE 144.85
70000800,
#BPMCHANGE 145.53
#SCROLL 0.99
3000201110102010,
#BPMCHANGE 144.77
#SCROLL 1
1011200011101110,
#BPMCHANGE 144.85
30121121,
#BPMCHANGE 145
11121121,
21210121,
1010201110102010,
11201211,
11201211,
#BPMCHANGE 145.4
#SCROLL 0.99
21201201,
#BPMCHANGE 145.02
200000200000200000100000500000000000000008000000,
#BPMCHANGE 143.67
#SCROLL 1
30121121,
#BPMCHANGE 146.09
#SCROLL 0.99
11121121,
#BPMCHANGE 144.96
#SCROLL 1
21210121,
#BPMCHANGE 144.88
1010201110102010,
#BPMCHANGE 145
#SCROLL 0.99
11201211,
#BPMCHANGE 144.43
#SCROLL 1
1010200010201110,
31211121,
#BPMCHANGE 145.24
#SCROLL 0.99
1011201020102010,
1010201020112011,
#BPMCHANGE 145.71
2,
#GOGOSTART
#BPMCHANGE 144.78
#SCROLL 1
3000220100102020,
#BPMCHANGE 145.52
#SCROLL 0.99
1010220100102020,
1010220100102020,
#BPMCHANGE 144.59
#SCROLL 1
1011201011102000,
#BPMCHANGE 144.87
1010201110201011,
#BPMCHANGE 144.67
1010201110201010,
#BPMCHANGE 145.4
#SCROLL 0.99
1011201210102010,
#BPMCHANGE 144.36
#SCROLL 1
1000200011101110,
#BPMCHANGE 146.09
#SCROLL 0.99
3000220100102020,
#BPMCHANGE 144.17
#SCROLL 1
1010220100102020,
#BPMCHANGE 145.58
#SCROLL 0.99
1010220100102020,
#BPMCHANGE 144.43
#SCROLL 1
1011201011102000,
#BPMCHANGE 145.13
#SCROLL 0.99
1010201110201011,
#BPMCHANGE 144.94
#SCROLL 1
1010201110201010,
01210121,
#BPMCHANGE 145
#SCROLL 0.99
0010201020102210,
#BPMCHANGE 144.98
#SCROLL 1
11700000,
#BPMCHANGE 144.59
0008,
#BPMCHANGE 145.11
#SCROLL 0.99
3000220100102020,
#BPMCHANGE 146.51
#SCROLL 0.98
1010220100102020,
#BPMCHANGE 144.41
#SCROLL 1
1010220100102020,
#BPMCHANGE 144.42
1011201011102000,
#BPMCHANGE 145
#SCROLL 0.99
1010201110201011,
1010201110201010,
#BPMCHANGE 145.81
001210033,
#BPMCHANGE 143.12
#SCROLL 1.01
00340404,
#BPMCHANGE 145.71
#SCROLL 0.99
04700000,
#BPMCHANGE 146.47
#SCROLL 0.98
0008,
#GOGOEND
#BPMCHANGE 143.85
0020202220200020,
02200000,
#END
COURSE:Hard
LEVEL:6
BALLOON:8,8,16
SCOREINIT:920
SCOREDIFF:270
#START
100000000000200000000200000000200000200000000000,
100000000000200000000200000000200000200000000000,
100000000000200000000200000000200000200000000000,
#BPMCHANGE 144.85
700000000000000000000000000800000000000000000000,
#BPMCHANGE 145.53
100000000000200000000000100000000000200000000000,
#BPMCHANGE 144.77
100000100000200000000000500000000000000080000000,
#BPMCHANGE 144.85
100000000000200000000000100000100000200000000000,
#BPMCHANGE 145
100000000000200000000000100000100000200000000000,
100000100000200000000000100000100000000000100000,
100000000000200000000000100000000000000000000000,
100000000000200000000000100000100000200000100000,
000000100000200000000000100000100000000000000000,
#BPMCHANGE 145.4
100000100000200000000000100000100000000000100000,
#BPMCHANGE 145.02
100000000000200000000000300000000000000000000000,
#BPMCHANGE 143.67
100000000000200000000000100000100000200000000000,
#BPMCHANGE 146.09
100000000000200000000000100000100000200000000000,
#BPMCHANGE 144.96
100000100000200000000000100000100000000000100000,
#BPMCHANGE 144.88
100000000000200000000000100000000000000000000000,
#BPMCHANGE 145
100000100000200000000000100000100000200000100000,
#BPMCHANGE 144.43
000000100000200000000000100000100000000000000000,
100000000000200000000000100000100000200000000000,
#BPMCHANGE 145.24
100000000000200000000000100000100000200000000000,
100000100000200000000000100000100000200000100000,
#BPMCHANGE 145.71
700000000000000000000000800000000000000000000000,
#GOGOSTART
#BPMCHANGE 144.78
300000000000100100000100000000100000200000200000,
#BPMCHANGE 145.52
100000000000100100000100000000100000200000200000,
100000000000100100000100000000100000200000200000,
#BPMCHANGE 144.59
500000000000000000000000000000000000000080000000,
#BPMCHANGE 144.87
100000100000200000000000100000100000200000100000,
#BPMCHANGE 144.67
100000100000200000000000100000100000200000100000,
#BPMCHANGE 145.4
000000100000200000100000000000100000200000000000,
#BPMCHANGE 144.36
500000000000000000000000000000000000000080000000,
#BPMCHANGE 146.09
300000000000100100000100000000100000200000200000,
#BPMCHANGE 144.17
100000000000100100000100000000100000200000200000,
#BPMCHANGE 145.58
100000000000100100000100000000100000200000200000,
#BPMCHANGE 144.43
500000000000000000000000000000000000000080000000,
#BPMCHANGE 145.13
100000000000200000000000100000100000200000000000,
#BPMCHANGE 144.94
100000000000200000000000100000100000200000100000,
000000100000200000100000000000000000300000300000,
#BPMCHANGE 145
000000000000300000300000000000300000000000300000,
#BPMCHANGE 144.98
000000300000700000000000000000000000000000000000,
#BPMCHANGE 144.59
000000000000000000000000800000000000000000000000,
#BPMCHANGE 145.11
300000000000200200000100000000100000200000200000,
#BPMCHANGE 146.51
100000000000200200000100000000100000200000200000,
#BPMCHANGE 144.41
100000000000200200000100000000100000200000200000,
#BPMCHANGE 144.42
500000000000000000000000000000000000000080000000,
#BPMCHANGE 145
100000000000200000000000100000100000200000100000,
100000100000200000000000000000100000200000100000,
#BPMCHANGE 145.81
000000100000200000100000000000000000400000400000,
#BPMCHANGE 143.12
000000000000400000300000000000300000000000300000,
#BPMCHANGE 145.71
000000300000600000000000000000000000000000000000,
#BPMCHANGE 146.47
000000000000000000000000000000000000000080000000,
#GOGOEND
#BPMCHANGE 143.85
000000200000200000000000200000200000000000200000,
000000200000200000000000000000000000000000000000,
#END
COURSE:Normal
LEVEL:5
BALLOON:6,6,16
SCOREINIT:900
SCOREDIFF:283
#START
1000200200000000,
1000200200000000,
1000200200000000,
7008,
1212,
11001000,
10201100,
102011000,
10201101,
1210,
10201100,
10201100,
10201101,
1230,
10201100,
10201100,
10201101,
1210,
10201100,
10201100,
10001120,
10001120,
11201120,
7008,
#GOGOSTART
00301110,
10301110,
10402220,
500000000000000000000000000000000000000008000000,
10201110,
1210,
10201110,
500000000000000000000000000000000000000008000000,
00301110,
10301110,
10402220,
500000000000000000000000000000000000000008000000,
10201110,
10201011,
00201033,
00330303,
03700000,
,
80301110,
10301110,
10402220,
500000000000000000000000000000000008000000000000,
10201110,
10201011,
00110022,
00330303,
03600000,
000000000000000000000000000000000000000008000000,
#GOGOEND
#END
COURSE:Easy
LEVEL:3
BALLOON:4,8,10
SCOREINIT:820
SCOREDIFF:388
#START
200000000000200000000000000000000000000000000000,
200000000000200000000000000000000000000000000000,
200000000000200000000000000000000000000000000000,
#BPMCHANGE 144.85
700000000000000000000000000000800000000000000000,
#BPMCHANGE 145.53
300000000000000000000000000000000000000000000000,
#BPMCHANGE 144.77
300000000000000000000000000000000000000000000000,
#BPMCHANGE 144.85
100000000000000000000000100000000000100000000000,
#BPMCHANGE 145
100000000000000000000000100000000000100000000000,
100000000000000000000000100000000000000000000000,
500000000000000000000000000080000000000000000000,
100000000000200000000000000000000000200000000000,
100000000000200000000000000000000000200000000000,
#BPMCHANGE 145.4
100000000000000000000000100000000000000000000000,
#BPMCHANGE 145.02
500000000000000000000000000080000000000000000000,
#BPMCHANGE 143.67
100000000000000000000000100000000000100000000000,
#BPMCHANGE 146.09
100000000000000000000000100000000000100000000000,
#BPMCHANGE 144.96
100000000000000000000000100000000000000000000000,
#BPMCHANGE 144.88
500000000000000000000000000080000000000000000000,
#BPMCHANGE 145
100000000000200000000000000000000000200000000000,
#BPMCHANGE 144.43
100000000000200000000000000000000000200000000000,
100000000000000000000000100000000000000000000000,
#BPMCHANGE 145.24
200000000000000000000000200000000000000000000000,
100000000000000000000000700000000000000000000000,
#BPMCHANGE 145.71
800000000000000000000000800000000000000000000000,
#GOGOSTART
#BPMCHANGE 144.78
000000000000300000000000100000000000100000000000,
#BPMCHANGE 145.52
000000000000300000000000100000000000100000000000,
000000000000300000000000100000000000100000000000,
#BPMCHANGE 144.59
500000000000000000000000000080000000000000000000,
#BPMCHANGE 144.87
100000000000100000000000000000000000100000000000,
#BPMCHANGE 144.67
100000000000100000000000000000000000100000000000,
#BPMCHANGE 145.4
100000000000000000000000100000000000100000000000,
#BPMCHANGE 144.36
500000000000000000000000000000000000000080000000,
#BPMCHANGE 146.09
000000000000300000000000100000000000100000000000,
#BPMCHANGE 144.17
000000000000300000000000100000000000100000000000,
#BPMCHANGE 145.58
000000000000300000000000100000000000100000000000,
#BPMCHANGE 144.43
500000000000000000000000000080000000000000000000,
#BPMCHANGE 145.13
100000000000100000000000000000000000100000000000,
#BPMCHANGE 144.94
100000000000100000000000000000000000100000000000,
100000000000000000000000100000000000000000000000,
#BPMCHANGE 145
100000000000100000000000100000000000100000000000,
#BPMCHANGE 144.98
100000000000700000000000000000000000000000000000,
#BPMCHANGE 144.59
000000000000000000000000800000000000000000000000,
#BPMCHANGE 145.11
000000000000300000000000100000000000100000000000,
#BPMCHANGE 146.51
000000000000300000000000300000000000100000000000,
#BPMCHANGE 144.41
000000000000300000000000300000000000300000000000,
#BPMCHANGE 144.42
600000000000000000000000000080000000000000000000,
#BPMCHANGE 145
100000000000100000000000000000000000100000000000,
100000000000100000000000000000000000100000000000,
#BPMCHANGE 145.81
100000000000100000000000000000000000300000000000,
#BPMCHANGE 143.12
300000000000300000000000000000000000000000000000,
#BPMCHANGE 145.71
300000000000600000000000000000000000000000000000,
#BPMCHANGE 146.47
000000000000000000000000000000000000000080000000,
#GOGOEND
#END