Files
2023-01-17 00:45:18 -05:00

346 lines
3.9 KiB
Plaintext

//TJADB Project
TITLE:Lovers
TITLEJA:ラヴァーズ
SUBTITLE:--7‼/NARUTO-Shippuuden
SUBTITLEJA:「NARUTO‐ナルト‐疾風伝」より
BPM:164
WAVE:Lovers.ogg
OFFSET:-1.703
DEMOSTART:62.753
COURSE:Oni
LEVEL:6
BALLOON:30
SCOREINIT:680
SCOREDIFF:188
#START
21121121,
3000003000001110,
#GOGOSTART
1020201110201010,
0010222010201110,
1020111020102010,
1000100010001110,
1020102010111010,
0010202010111010,
500000000000000000000000000000000000000008000000,
11111111,
30000333,
00000340,
1010201000111020,
1022201000102010,
1010201000111010,
2022202000101110,
#GOGOEND
10122021,
0010201000101011,
11101201,
0010201000102011,
10122021,
01200112,
10201120,
1110201000102011,
11122021,
0010202000102011,
10122010,
1000102000102011,
10112101,
2000102000102011,
1010201020102011,
1010201000102011,
1000200011102010,
0010201110102011,
1000200011102010,
0020102010102011,
1000200011102010,
0010201110102011,
10210120,
11210120,
21121121,
3000003000001110,
#GOGOSTART
1020201110201010,
0010222010201110,
1020111020102010,
1000100010001110,
1020102010111010,
0010202010111010,
500000000000000000000000000000000000000008000000,
1010200010101110,
3000201110102010,
0010201110102010,
1010201000111020,
1022201000102010,
1000201110102010,
0010201011101070,
,
00000008,
1010201000111020,
1020201000101110,
#GOGOEND
3,
#END
COURSE:Hard
LEVEL:5
BALLOON:8,12
SCOREINIT:880
SCOREDIFF:230
#START
,
30030000,
#GOGOSTART
10101011,
0010100010001110,
10101011,
1000100010001110,
10101011,
01101010,
5,
000000000000000000000000000000000008000000000000,
30000333,
01101150,
,
000000000000000000000008000000000000000000000000,
11210110,
11210000,
#GOGOEND
1000111010002010,
01210110,
1000111010002010,
01210000,
1000111010002010,
01210110,
10101110,
10110000,
1000111010002010,
01210110,
1000111010002010,
01210000,
1000111010002010,
01210110,
10101110,
10110000,
10201011,
0010100011101000,
10201011,
000000100000100000000000500000000000000008000000,
10201011,
01110110,
1212,
10210120,
70000008,
30030000,
#GOGOSTART
11101011,
0010100010001110,
10101111,
0010100010001110,
11101011,
01101010,
5,
000000000000000000000000000000000008000000000000,
10101111,
01101110,
5,
000000000000000000000000000008000000000000000000,
10101111,
01101019,
,
,
8,
11210000,
#GOGOEND
3,
#END
COURSE:Normal
LEVEL:5
BALLOON:6,12
SCOREINIT:1020
SCOREDIFF:385
#START
,
30030000,
#GOGOSTART
1111,
1110,
1111,
2220,
1111,
2220,
5,
000000000000000000000000000000000008000000000000,
30303033,
0115,
,
000000000000000000000008000000000000000000000000,
10110110,
10110000,
#GOGOEND
11000000,
1110,
11000000,
1110,
11000000,
1110,
10201110,
1210,
11000000,
1110,
11000000,
1110,
11000000,
1110,
10201110,
1210,
10201011,
00111000,
10201011,
00111000,
10201011,
00111000,
1111,
10100110,
70000008,
03003000,//42
#GOGOSTART
11101110,
1110,
11102220,
1110,
11101110,
22202020,
5,
000000000000000000000000000000000008000000000000,
30101011,
0022,
5,
000000000000000000000000000008000000000000000000,
30101011,
00202009,
,
,
8,
11110000,
#GOGOEND
3,
#END
COURSE:Easy
LEVEL:3
BALLOON:8,16
SCOREINIT:980
SCOREDIFF:663
#START
,
30030000,
#GOGOSTART
11,
1110,
11,
1110,
11,
11,
5,
000000000000000000000008000000000000000000000000,
3,
30003005,
,
000000000000000000000008000000000000000000000000,
1,
1,
#GOGOEND
1100,
1,
1100,
1,
1100,
1,
1110,
1110,
1100,
1,
1100,
1,
1100,
1,
1110,
2220,
12,
1110,
12,
1110,
12,
1110,
1011,
1001,
500000000000000000000000000008000000000000000000,
3,
#GOGOSTART
11,
1110,
11,
1110,
11,
11,
5,
000000000000000000000000000008000000000000000000,
3,
30003007,
,
00000800,
3,
30003009,
,
,
,
8,
#GOGOEND
3,
#END