Files
2023-06-15 19:15:39 -05:00

328 lines
7.9 KiB
Plaintext

//TJADB Project
TITLE:Mahou Tsukai Sally
TITLEJA:魔法使いサリー
SUBTITLE:--Mitsuko Horie/Mahou Tsukai Sally
SUBTITLEJA:魔法使いサリー
BPM:134
WAVE:Mahou Tsukai Sally.ogg
OFFSET:-2.150
DEMOSTART:8.838
COURSE:Oni
LEVEL:7
BALLOON:8,9
SCOREINIT:1300
SCOREDIFF:240
#START
#GOGOSTART
100000000200100000200000100000000200100000200000,
100000200200100000200000100000000000000000000000,
100000000200100000200000100000000200100000200000,
100000200200100000200000100000000000100000100000,
#GOGOEND
100200000200100000100000100200000200100000100000,
100200000200100000200200100000000000100000100000,
100200000200100000100000100200000200100000100000,
100200000200100000200200100000000000100000100000,
300000200000100000100200000100200000100000200000,
300000200000100000200100000200100000200000100000,
100000100200000100200000100000100200000100200000,
100000200200200000100000200000000000100100200000,
100000200100100000200000100000200100100000200000,
100000200100100000200000100000000000100000100000,
#GOGOSTART
300000200000100100200100000100200000100000000000,
300000200000100200200100000200100000200000100000,
100000000200100000200000100000000000300000000000,
700000000000000000000000000000000000800000000000,
#GOGOEND
400000000000000000000000000000000000100000100000,
100200000200100000100000100200000200100000100000,
100200000200100000200200100000000000100000100000,
100200000200100000100000100200000200100000100000,
100200000200100000200200100000000000100000100000,
300000200000100000100200000100200000100000200000,
300000200000100000200100000200100000200000100000,
100000100200000100200000100000100200000100200000,
100000100100200000100000100000000000100100200000,
100000200100100000200000100000200100100000200000,
100000200100100000100000100000000000100000100000,
#GOGOSTART
300000200000100100200100000200100200100000200000,
300000200000100200200100000200100200200000200000,
100000000100200000100000100000000000300000000000,
700000000000000000000000000000000000800000000000,
#GOGOEND
100000000000000000000000100000000000000000000000,
000000000000100000000000300000000000000000000000,
#END
COURSE:Hard
LEVEL:6
SCOREINIT:260
SCOREDIFF:380
#START
#GOGOSTART
1001102010011020,
1011102020000000,
1001102010011020,
#BRANCHSTART p,75,999
#N
1011102020001000,
#GOGOEND
10111011,
10111010,
10111011,
#E
1011102020001000,
#GOGOEND
1001102010011020,
1001101010001000,
1001102010011020,
#M
,
#GOGOEND
,
,
,
#BRANCHSTART p,75,90
#N
10111010,
3001,
500000000000000000000000000000008000000000000000,
11021102,
1010202010001110,
1000111010001000,
11101010,
#GOGOSTART
3001,
500000000000000000000000000000008000000000000000,
1001101010001000,
70000800,
#GOGOEND
40000011,
1001101010011010,
10111011,
1001101010011010,
10111010,
3001,
500000000000000000000000000000008000000000000000,
11021102,
1010202010001110,
1000111010001000,
1110101010001000,
#GOGOSTART
3001,
500000000000000000000000000000008000000000000000,
1001101010003000,
7008,
#GOGOEND
11,
0130,
#E
1001101010001000,
3000202202202000,
3000202202202000,
1010002010110020,
1010202010001110,
1000111010001020,
1110102010001000,
#GOGOSTART
3000202202202000,
3000202202202000,
1001101010001010,
70000800,
#GOGOEND
40000011,
1001102010011020,
1001101010001010,
1001102010011020,
1001101010001000,
3000202202202000,
3000202202202000,
1010002010110020,
1010202010001110,
1000111010001020,
1110102010001000,
#GOGOSTART
3000202202202000,
3000202202202000,
1001101010003000,
7008,
#GOGOEND
11,
0130,
#M
1001101010001000,
3000201201201000,
3000201201202000,
1010002010110020,
1010202010001110,
1020112010201020,
1110102010001000,
#GOGOSTART
3000201201201000,
3000201201202000,
1001101010001010,
70000800,
#GOGOEND
40000011,
1001102010011020,
1001101010001010,
1001102010011020,
1001101010001000,
3000201201201000,
3000201201202000,
1010002010110020,
1010202010001110,
1020112010201020,
1120102010001000,
#GOGOSTART
3000201201201000,
3000201201202000,
1001101010003000,
7008,
#GOGOEND
11,
0130,
#BRANCHEND
#END
COURSE:Normal
LEVEL:3
BALLOON:6,7
SCOREINIT:610
SCOREDIFF:750
#START
#GOGOSTART
100000000000000000000000100000000000000000000000,
100000000000100000000000100000000000000000000000,
100000000000000000000000100000000000000000000000,
100000000000100000000000100000000000000000000000,
#GOGOEND
100000000000100000100000100000000000000000000000,
100000000000100000100000100000000000000000000000,
100000000000100000100000100000000000000000000000,
100000000000100000100000100000000000100000000000,
300000000000000000000000000000000000100000000000,
300000000000000000000000000000000000000000000000,
100000000000200000000000200000000000000000000000,
100000000000200000000000200000000000100000100000,
100000000000200000200000200000000000000000000000,
100000000000200000200000200000000000000000000000,
#GOGOSTART
500000000000000000800000000000000000000000000000,
500000000000000000800000000000000000000000000000,
100000000000100000100000100000000000100000000000,
700000000000000000000000000000800000000000000000,
#GOGOEND
000000000000000000000000000000000000000000000000,
100000000000100000100000100000000000100000100000,
100000000000100000100000100000000000000000000000,
100000000000100000100000100000000000100000100000,
100000000000100000100000100000000000100000000000,
300000000000000000000000000000000000100000000000,
300000000000000000000000000000000000000000000000,
100000000000200000000000200000000000000000000000,
100000000000200000000000200000000000100000100000,
100000000000200000200000200000000000000000000000,
100000000000200000200000200000000000000000000000,
#GOGOSTART
500000000000000000800000000000000000000000000000,
500000000000000000800000000000000000000000100000,
100000000000100000100000100000000000100000100000,
700000000000000000000000000000800000000000000000,
#GOGOEND
100000000000000000000000100000000000000000000000,
000000000000100000000000300000000000000000000000,
#END
COURSE:Easy
LEVEL:3
BALLOON:5,6
SCOREINIT:870
SCOREDIFF:590
#START
#GOGOSTART
100000000000000000000000100000000000000000000000,
100000000000100000000000100000000000000000000000,
100000000000000000000000100000000000000000000000,
100000000000100000000000100000000000000000000000,
#GOGOEND
100000000000000000000000100000000000000000000000,
100000000000100000100000100000000000000000000000,
100000000000000000000000100000000000000000000000,
100000000000100000100000100000000000000000000000,
300000000000000000000000000000000000000000000000,
300000000000000000000000000000000000000000000000,
100000000000100000000000100000000000000000000000,
100000000000000000000000100000000000100000100000,
100000000000100000000000100000000000000000000000,
100000000000100000100000100000000000000000000000,
#GOGOSTART
500000000000000000800000000000000000000000000000,
500000000000000000800000000000000000000000000000,
100000000000100000100000100000000000100000000000,
700000000000000000000000000000800000000000000000,
#GOGOEND
000000000000000000000000000000000000000000000000,
100000000000100000100000100000000000000000000000,
100000000000100000100000100000000000000000000000,
100000000000100000100000100000000000000000000000,
100000000000100000100000100000000000000000000000,
300000000000000000000000000000000000100000000000,
300000000000000000000000000000000000000000000000,
100000000000100000000000100000000000000000000000,
200000000000200000000000200000000000100000100000,
100000000000100000000000100000000000000000000000,
100000000000100000100000100000000000000000000000,
#GOGOSTART
500000000000000000800000000000000000000000000000,
500000000000000000800000000000000000000000000000,
100000000000100000100000100000000000100000000000,
700000000000000000000000000000800000000000000000,
#GOGOEND
100000000000000000000000100000000000000000000000,
000000000000100000000000300000000000000000000000,
#END