Files
2023-06-15 19:15:39 -05:00

248 lines
8.6 KiB
Plaintext

//TJADB Project
TITLE:Mainichi Kaa-san
TITLEJA:毎日かあさん
SUBTITLE:--Kumiko Mori/Mainichi Kaa-san
BPM:122
WAVE:Mainichi Kaa-san.ogg
OFFSET:-2.206
DEMOSTART:41.544
COURSE:Oni
LEVEL:7
BALLOON:9
SCOREINIT:880
SCOREDIFF:265
#START
300000000300000000300000300000000000000000000000,
#GOGOSTART
100000200200200000200000100100200000100000300000,
100000200200200000200000100100200000100000400000,
100000200200200000200000100100200000100000000000,
100100100000300000000000200000000200000000200000,
100000200200100000200000100100200000100000300000,
100000200200100000200000100100200000100000400000,
100000200200100000200000100100200000100000000000,
200200200000300000000000200000000200000000200000,
#GOGOEND
78,
100000000000100000000000100000200200000200200000,
100000100000200200000200000000000000000000000000,
100000000000100000000000100000200200000200200000,
100000100000100100000100000000000000000000000000,
100000000000100000000000100000100100000100100000,
100000000000100000000000100000200200000200200000,
100000100100100000100000000000200200200000200000,
500000000000000000000008000000000000000000000000,
200200200000200200200000200200200000200000100100,
100000100000200000200000300000000000000000000000,
#GOGOSTART
100000200000100000200000100000200200000200200000,
100000200000100000200000200200000200000200200000,
100000200000100000200000100000200200000200200000,
300000000000300000000000400000000400000000400000,
100000200000100000200000100000200200000200200000,
100000200000100000200000200200000200000200200000,
100000100100100000100000000000400000000000400000,
300000000300000000300000300000000000000000000000,
100000200000100000200000100000200200000200200000,
100000200000100000200000200200000200000200200000,
100000200000100000200000100000200200000200200000,
300000000000300000000000400000000400000000400000,
100000200000100000200000100000200200000200000200,
100000200000100000200000200200000200000200200000,
100000100100100000100000000000400000000000400000,
300000000300000000300000300000000000000000000000,
#GOGOEND
100100200200100000200200100100200200100000400000,
100000200200000200000200100100200200100000300000,
100000100100000200200200100100100200200000000000,
000000300000000000300000300000000000000000000000,
#END
COURSE:Hard
LEVEL:6
SCOREINIT:950
SCOREDIFF:315
#START
300000000300000000300000300000000000000000000000,
#GOGOSTART
100000000000200000000000100000100100100000000000,
100000000000200000000000100000100100100000000000,
100000000000200000000000100000100100100000000000,
100100100000300000000000000000000000000000000000,
100000100000200000000000100000100100100000000000,
100000100000200000000000100000100100100000000000,
100000100000200000000000100000100100100000000000,
100100100000600000000000000000000800000000000000,
#GOGOEND
000000000000000000000000000000000000000000000000,
100000000000100000000000100000100000200000000000,
100000100000100000000100000000000000000000000000,
100000000000100000000000100000100000200000000000,
100000100000100000000100000000000000000000000000,
100000000000100000000000100000100000200000000000,
100000000000100000000000200000000000200000000000,
100000100100100000000000100000100100100000000000,
500000000000000000000800000000000000000000000000,
200000000000200000000000200000000000000000100100,
100000100000200000200000200000000000000000000000,
#GOGOSTART
100000000000100000000000100000100100000100100000,
100000000000100000000000200200000200000200200000,
100000000000100000000000100000100100000100100000,
300000000000300000000000400000000000400000000000,
100000000000100000000000100000100100000100100000,
100000000000100000000000200200000200000200200000,
100000100100100000100000000000200000000000200000,
300000000300000000300000300000000000000000000000,
100000000000100000000000100000100100000100100000,
100000000000100000000000200200000200000200200000,
100000000000100000000000100000100100000100100000,
300000000000300000000000400000000000400000000000,
100000000000100000000000100000100100000100000100,
100000000000100000000000200200000200000200200000,
100000100100100000100000000000200000000000200000,
300000000300000000300000300000000000000000000000,
#GOGOEND
100000100000200200200000100000100100100000000000,
100000100000200200200000100000100100100000000000,
100000100000200200200000100000200200200000000000,
000000300000000000300000300000000000000000000000,
#END
COURSE:Normal
LEVEL:3
BALLOON:4,10
SCOREINIT:1230
SCOREDIFF:630
#START
000000000000000000000000000000000000000000000000,
#GOGOSTART
100000000000100000000000100000100000100000000000,
100000000000100000000000100000100000100000000000,
100000000000100000000000100000100000100000000000,
600000000000000000000000800000000000000000000000,
100000000000100000000000100000100000100000000000,
100000000000100000000000100000100000100000000000,
100000000000100000000000200000200000200000000000,
600000000000000000000000800000000000000000000000,
#GOGOEND
000000000000000000000000000000000000000000000000,
100000000000100000000000100000000000000000000000,
100000100000100000000000100000000000000000000000,
100000000000100000000000100000000000000000000000,
100000100000100000000000100000000000000000000000,
100000000000100000000000200000000000200000000000,
100000000000100000000000200000000000200000000000,
100000100000100000000000100000100000100000000000,
500000000000000000800000000000000000000000000000,
100000000000100000000000200000000000200000000000,
700000000000000000000000800000000000000000000000,
#GOGOSTART
100000000000100000000000200000000000200000000000,
100000000000000000000000100000000000000000000000,
100000000000100000000000200000000000200000000000,
500000000000000000800000000000000000000000000000,
100000000000100000000000200000000000200000000000,
100000000000000000000000100000000000000000000000,
300000000000300000000000300000000000000000000000,
600000000000000000000000800000000000000000000000,
100000000000100000000000200000000000200000000000,
100000000000000000000000100000000000000000000000,
100000000000100000000000200000000000200000000000,
500000000000000000800000000000000000000000000000,
100000000000100000000000200000000000200000000000,
100000000000000000000000100000000000000000000000,
300000000000300000000000300000000000000000000000,
600000000000000000000000800000000000000000000000,
#GOGOEND
100000000000100000000000100000100000100000000000,
100000000000100000000000100000100000100000000000,
100000000000100000000000200000200000200000000000,
700000000000000000000000000000000000000000800000,
#END
COURSE:Easy
LEVEL:2
BALLOON:5
SCOREINIT:940
SCOREDIFF:315
#START
000000000000000000000000000000000000000000000000,
#GOGOSTART
100000000000000000000000100000000000100000000000,
100000000000000000000000100000000000100000000000,
100000000000000000000000100000000000100000000000,
600000000000000000000000800000000000000000000000,
100000000000000000000000100000000000100000000000,
100000000000000000000000100000000000100000000000,
100000000000000000000000200000000000200000000000,
600000000000000000000000800000000000000000000000,
#GOGOEND
000000000000000000000000000000000000000000000000,
100000000000000000000000100000000000000000000000,
100000000000100000000000100000000000000000000000,
100000000000000000000000100000000000000000000000,
100000000000100000000000100000000000000000000000,
100000000000100000000000100000000000000000000000,
200000000000200000000000200000000000000000000000,
100000000000100000000000100000000000100000000000,
500000000000000000800000000000000000000000000000,
200000000000200000000000200000000000000000000000,
300000000000000000000000000000000000000000000000,
#GOGOSTART
100000000000100000000000100000000000000000000000,
300000000000000000000000300000000000000000000000,
100000000000100000000000100000000000000000000000,
500000000000000000000000800000000000000000000000,
100000000000100000000000100000000000000000000000,
300000000000000000000000300000000000000000000000,
300000000000300000000000300000000000000000000000,
600000000000000000800000000000000000000000000000,
100000000000100000000000100000000000000000000000,
300000000000000000000000300000000000000000000000,
100000000000100000000000100000000000000000000000,
500000000000000000800000000000000000000000000000,
100000000000100000000000100000000000000000000000,
300000000000000000000000300000000000000000000000,
300000000000300000000000300000000000000000000000,
600000000000000000800000000000000000000000000000,
#GOGOEND
100000000000100000000000300000000000000000000000,
100000000000100000000000300000000000000000000000,
100000000000100000000000300000000000000000000000,
700000000000000000000000000000000000000000800000,
#END